<?xml version="1.0" standalone="no"?>
<!DOCTYPE svg PUBLIC "-//W3C//DTD SVG 1.1//EN" "http://www.w3.org/Graphics/SVG/1.1/DTD/svg11.dtd" >
<svg>
<metadata>
Created by FontForge 20120731 at Sat Jun 27 16:17:45 2015
 By ,,,
(c) 1992, 1994, 1997, 2000, 2004 Adobe Systems Incorporated. All rights reserved.
</metadata>
<defs>
<font id="MyriadPro-Bold" horiz-adv-x="555" >
  <font-face 
    font-family="Myriad Pro"
    font-weight="700"
    font-stretch="normal"
    units-per-em="1000"
    panose-1="2 11 7 3 3 4 3 2 2 4"
    ascent="750"
    descent="-250"
    x-height="489"
    cap-height="674"
    bbox="-40 -250 970 898"
    underline-thickness="50"
    underline-position="-50"
    unicode-range="U+0020-2122"
  />
<missing-glyph horiz-adv-x="500" 
d="M0 700h500v-700h-500v700zM420 650h-340l170 -255zM450 95v510l-170 -255zM420 50l-170 255l-170 -255h340zM50 95l170 255l-170 255v-510z" />
    <glyph glyph-name=".notdef" horiz-adv-x="500" 
d="M0 700h500v-700h-500v700zM420 650h-340l170 -255zM450 95v510l-170 -255zM420 50l-170 255l-170 -255h340zM50 95l170 255l-170 255v-510z" />
    <glyph glyph-name=".null" horiz-adv-x="0" 
 />
    <glyph glyph-name="nonmarkingreturn" horiz-adv-x="333" 
 />
    <glyph glyph-name="space" unicode=" " horiz-adv-x="202" 
 />
    <glyph glyph-name="exclam" unicode="!" horiz-adv-x="268" 
d="M77 221l-23 453h159l-22 -453h-114zM134 -11q-41 0 -65.5 26t-24.5 65q0 40 25 65.5t65 25.5t64 -25.5t25 -65.5q0 -39 -24 -65t-65 -26z" />
    <glyph glyph-name="quotedbl" unicode="&#x22;" horiz-adv-x="397" 
d="M170 685l-23 -271h-89l-23 271h135zM362 685l-23 -271h-89l-23 271h135z" />
    <glyph glyph-name="numbersign" unicode="#" horiz-adv-x="550" 
d="M314 271l16 112h-91l-16 -112h91zM92 0l26 179h-81v92h97l16 112h-85v93h99l25 174h89l-25 -174h91l26 174h89l-26 -174h80v-93h-94l-16 -112h83v-92h-98l-25 -179h-90l25 179h-91l-25 -179h-90z" />
    <glyph glyph-name="dollar" unicode="$" 
d="M225 -87v95q-51 2 -96 14t-74 29l30 117q32 -17 74.5 -30.5t91.5 -13.5q43 0 69.5 16t26.5 46q0 29 -25 48.5t-81 38.5q-40 13 -73 30t-57 38.5t-37 50t-13 64.5q0 66 44 114t125 64v95h98v-88q51 -2 85.5 -11.5t59.5 -21.5l-29 -113q-20 8 -55 21t-89 13
q-49 0 -67.5 -17.5t-18.5 -38.5q0 -25 28 -43.5t92 -42.5q89 -32 128 -76t39 -111q0 -33 -11.5 -63.5t-34 -55t-56 -42t-76.5 -24.5v-102h-98z" />
    <glyph glyph-name="percent" unicode="%" horiz-adv-x="880" 
d="M209 661q42 0 74.5 -14.5t55 -40.5t34 -61t11.5 -77q0 -51 -15 -89.5t-40 -65t-57.5 -39.5t-67.5 -13q-37 0 -69.5 13.5t-56.5 39t-37.5 61.5t-13.5 82q0 43 13 80.5t36.5 65t57 43t75.5 15.5zM206 578q-34 0 -50 -34t-16 -83q0 -51 17 -84t50 -33q32 0 48 31t16 86
q0 50 -15 83.5t-50 33.5zM212 -11l373 672h82l-374 -672h-81zM677 391q42 0 74.5 -14.5t55 -40.5t34 -61t11.5 -77q0 -51 -15 -89.5t-40 -65t-57.5 -39.5t-67.5 -13q-37 0 -69 13.5t-56 39t-38 61.5t-14 82q0 43 13 80.5t36.5 65t57 43t75.5 15.5zM675 308q-35 0 -50.5 -34
t-15.5 -83q-1 -51 16 -84t50 -33q32 0 48 31t16 86q0 50 -14.5 83.5t-49.5 33.5z" />
    <glyph glyph-name="ampersand" unicode="&#x26;" horiz-adv-x="678" 
d="M495 0q-11 11 -21.5 22.5t-22.5 25.5q-33 -26 -79 -42.5t-106 -16.5q-61 0 -105.5 16.5t-73 43.5t-42.5 61.5t-14 69.5q0 67 35 115t93 78v4q-22 24 -36.5 59t-14.5 71q0 32 12.5 63.5t38 57t63 41.5t88.5 16q39 0 72.5 -11t58 -31.5t38.5 -50t14 -65.5
q0 -51 -31.5 -94.5t-101.5 -78.5l-1 -4q29 -32 58.5 -66t54.5 -60q20 32 35 75.5t22 88.5h136q-14 -77 -40.5 -141t-71.5 -115q29 -32 58 -65t61 -67h-177zM287 99q30 0 54 10t39 24q-32 32 -71 75t-81 90q-21 -15 -37 -37.5t-16 -55.5q0 -43 30 -74.5t82 -31.5zM305 590
q-29 0 -45 -21.5t-16 -47.5t11.5 -49t34.5 -48q37 26 55.5 48t18.5 51q0 24 -14.5 45.5t-44.5 21.5z" />
    <glyph glyph-name="quotesingle" unicode="'" horiz-adv-x="205" 
d="M170 685l-23 -271h-89l-23 271h135z" />
    <glyph glyph-name="parenleft" unicode="(" horiz-adv-x="314" 
d="M280 691q-43 -69 -72 -169.5t-29 -235.5q0 -133 29.5 -232.5t71.5 -169.5h-106q-20 29 -40.5 68.5t-37 89.5t-26.5 111.5t-10 133.5q0 73 10.5 134t26.5 111.5t36.5 90t40.5 68.5h106z" />
    <glyph glyph-name="parenright" unicode=")" horiz-adv-x="314" 
d="M35 -116q41 69 71 170t30 234t-29.5 233t-71.5 170h106q20 -29 40 -68t36.5 -89t27 -111.5t10.5 -134.5t-10.5 -134.5t-27 -111.5t-36.5 -89.5t-40 -68.5h-106z" />
    <glyph glyph-name="asterisk" unicode="*" horiz-adv-x="454" 
d="M372 635l-108 -127l1 -3l159 32v-101l-160 28l-1 -3l109 -123l-89 -52l-57 155l-2 -1l-58 -154l-86 52l107 125v2l-157 -29v101l155 -31l1 2l-106 126l89 51l56 -153h2l57 153z" />
    <glyph glyph-name="plus" unicode="+" horiz-adv-x="596" 
d="M347 532v-218h209v-94h-209v-220h-98v220h-209v94h209v218h98z" />
    <glyph glyph-name="comma" unicode="," horiz-adv-x="260" 
d="M2 -119q23 67 42 141t30 143l155 10q-25 -77 -57.5 -151.5t-68.5 -133.5z" />
    <glyph glyph-name="hyphen" unicode="-" horiz-adv-x="322" 
d="M292 313v-101h-262v101h262z" />
    <glyph glyph-name="period" unicode="." horiz-adv-x="260" 
d="M139 -11q-39 0 -64 26t-25 66q0 41 25 67t65 26t64.5 -25.5t24.5 -67.5q0 -40 -24.5 -66t-65.5 -26z" />
    <glyph glyph-name="slash" unicode="/" horiz-adv-x="331" 
d="M16 -40l214 725h101l-214 -725h-101z" />
    <glyph glyph-name="zero" unicode="0" 
d="M280 661q65 0 111 -27t75 -73t42.5 -106t13.5 -127q0 -75 -15.5 -137.5t-46 -107.5t-77 -69.5t-108.5 -24.5q-63 0 -108.5 26.5t-75.5 72t-44.5 106.5t-14.5 130q0 70 15 131.5t46 107.5t77.5 72t109.5 26zM278 546q-42 0 -68 -54t-25 -168q-1 -112 24 -166t70 -54
q91 0 91 222q0 109 -23 164.5t-69 55.5z" />
    <glyph glyph-name="one" unicode="1" 
d="M236 515h-2l-124 -59l-25 114l172 80h126v-650h-147v515z" />
    <glyph glyph-name="two" unicode="2" 
d="M42 0v92l84 76q53 48 93 86t66 71t39.5 61.5t14.5 57.5q0 40 -25 67.5t-82 27.5q-42 0 -77.5 -17t-61.5 -37l-43 109q37 28 92 47.5t121 19.5q55 0 97.5 -15.5t71.5 -42.5t44 -64.5t15 -81.5q0 -41 -14 -78t-37.5 -71.5t-55 -67t-66.5 -63.5l-60 -50v-2h245v-125h-461z
" />
    <glyph glyph-name="three" unicode="3" 
d="M69 149q10 -5 26 -12t36 -13t43 -10.5t46 -4.5q60 0 89.5 25t29.5 62q0 24 -11 41.5t-29.5 29t-42 17t-48.5 5.5h-62v109h59q19 0 39.5 4t37.5 13t28 23t11 35q0 29 -24 48.5t-72 19.5q-20 0 -40 -4t-38 -9.5t-33 -12.5t-25 -13l-31 110q29 19 83.5 34t117.5 15
q52 0 92.5 -13t68 -35t41.5 -51.5t14 -62.5q0 -52 -29.5 -91t-89.5 -60v-2q29 -5 55 -18.5t45 -34t30 -47t11 -58.5q0 -43 -18.5 -79.5t-53 -63t-83.5 -41.5t-111 -15q-63 0 -113.5 14t-79.5 32z" />
    <glyph glyph-name="four" unicode="4" 
d="M311 0v155h-288v99l246 396h186v-381h78v-114h-78v-155h-144zM311 269v144q0 29 1.5 59t3.5 62h-4q-16 -32 -29.5 -61t-30.5 -60l-87 -142v-2h146z" />
    <glyph glyph-name="five" unicode="5" 
d="M476 525h-252l-14 -100q11 2 20 2h22q47 0 91.5 -11t79.5 -36q37 -25 58 -65.5t21 -97.5q0 -45 -19 -86.5t-55 -73t-87.5 -50t-117.5 -18.5q-60 0 -107 11.5t-74 25.5l27 114q22 -11 62 -21.5t85 -10.5q24 0 47 6t41.5 18t30 30.5t11.5 44.5q0 51 -42.5 79.5t-140.5 28.5
q-27 0 -47.5 -1.5t-40.5 -4.5l43 341h358v-125z" />
    <glyph glyph-name="six" unicode="6" 
d="M457 542q-13 1 -27 0.5t-32 -2.5q-51 -4 -88 -18.5t-62.5 -35.5t-40.5 -47.5t-21 -54.5h3q24 25 58 38.5t80 13.5q41 0 77.5 -14t64 -41t43.5 -66.5t16 -90.5q0 -48 -17.5 -91t-49.5 -75t-76 -50.5t-97 -18.5q-65 0 -113.5 22.5t-80.5 61.5t-48 90.5t-16 109.5
q0 92 31 166t84 123q97 88 251 96q21 2 35.5 2t25.5 -1v-117zM286 101q41 0 64.5 32.5t23.5 82.5q0 45 -24 78.5t-73 33.5q-31 0 -55 -16.5t-35 -41.5q-6 -12 -6 -38q1 -26 8 -49.5t20 -41.5t32 -29t45 -11z" />
    <glyph glyph-name="seven" unicode="7" 
d="M508 650v-96l-268 -554h-161l268 523v2h-298v125h459z" />
    <glyph glyph-name="eight" unicode="8" 
d="M273 -11q-62 0 -107.5 16t-75 41.5t-44 58t-14.5 65.5q0 59 31 99.5t85 63.5v3q-48 24 -71 61.5t-23 80.5q0 41 17.5 75t48 58t72.5 37t91 13q57 0 97.5 -15t67 -39t38.5 -53.5t12 -59.5q0 -42 -23 -80.5t-71 -62.5v-3q24 -9 45.5 -23.5t38 -35t26 -46.5t9.5 -57
q0 -44 -18 -80.5t-50.5 -62.5t-78.5 -40t-103 -14zM279 94q41 0 65 23t24 58q0 43 -28.5 69t-73.5 38q-38 -11 -58.5 -36.5t-20.5 -60.5q0 -18 6 -34t18 -29t29.5 -20.5t38.5 -7.5zM276 558q-39 0 -59 -22t-20 -53q0 -33 26.5 -54.5t65.5 -33.5q26 8 46 30t20 53
q0 30 -18.5 55t-60.5 25z" />
    <glyph glyph-name="nine" unicode="9" 
d="M90 110q14 -2 28.5 -2t37.5 2q35 2 68.5 12t59.5 28q63 44 82 120l-3 1q-22 -23 -53.5 -35t-76.5 -12q-41 0 -78 14t-65 40t-44 64t-16 85q0 48 18 90.5t50.5 74.5t77.5 50.5t99 18.5q63 0 109 -22.5t76.5 -60.5t45.5 -89t15 -108q0 -102 -30 -176t-84 -123
q-94 -85 -248 -91q-20 -2 -38 -1.5t-31 1.5v119zM271 550q-39 0 -64.5 -31.5t-24.5 -82.5q0 -42 22.5 -73t69.5 -31q31 0 52 13t32 30q4 7 6 15.5t2 22.5q0 26 -5 50.5t-16.5 44t-29.5 31t-44 11.5z" />
    <glyph glyph-name="colon" unicode=":" horiz-adv-x="260" 
d="M139 312q-39 0 -64 26t-25 65q0 41 25 66.5t65 25.5t64 -25t25 -67q0 -39 -24.5 -65t-65.5 -26zM139 -11q-39 0 -64 26t-25 65q0 40 25 66t65 26t64 -25.5t25 -66.5q0 -39 -24.5 -65t-65.5 -26z" />
    <glyph glyph-name="semicolon" unicode=";" horiz-adv-x="260" 
d="M2 -119q23 67 42.5 141t30.5 143l153 10q-25 -77 -57.5 -151.5t-68.5 -133.5zM145 312q-40 0 -65 26t-24 65q0 41 24.5 66.5t64.5 25.5t64 -25t25 -67q0 -39 -24 -65t-65 -26z" />
    <glyph glyph-name="less" unicode="&#x3c;" horiz-adv-x="596" 
d="M58 309l480 223v-106l-363 -159v-2l363 -159v-106l-480 223v86z" />
    <glyph glyph-name="equal" unicode="=" horiz-adv-x="596" 
d="M40 325v93h516v-93h-516zM40 118v93h516v-93h-516z" />
    <glyph glyph-name="greater" unicode="&#x3e;" horiz-adv-x="596" 
d="M538 220l-480 -220v106l371 159v2l-371 159v106l480 -220v-92z" />
    <glyph glyph-name="question" unicode="?" horiz-adv-x="445" 
d="M138 218l-1 26q-2 38 11.5 77t47.5 80q24 29 41 53.5t17 50.5t-17.5 42t-55.5 18q-25 0 -52 -8t-47 -22l-34 109q27 16 70 28.5t97 12.5q49 0 85.5 -12.5t60 -34t35 -50t11.5 -59.5q0 -29 -8 -52.5t-20.5 -44t-27.5 -38t-29 -33.5q-28 -31 -40 -61t-11 -64v-18h-133z
M201 -11q-40 0 -64.5 26t-24.5 65q0 40 25 65.5t64 25.5q41 0 65 -25.5t25 -65.5q0 -39 -24.5 -65t-65.5 -26z" />
    <glyph glyph-name="at" unicode="@" horiz-adv-x="770" 
d="M457 345q-6 2 -13.5 3t-17.5 1q-25 0 -46.5 -11.5t-37.5 -31t-25 -45t-9 -54.5t12.5 -45.5t37.5 -16.5q14 0 27.5 8t25.5 22.5t20.5 33.5t11.5 41zM546 -68q-45 -20 -87.5 -28t-95.5 -8q-62 0 -118.5 21.5t-99.5 62.5t-68.5 99t-25.5 132q0 76 26.5 145.5t75.5 121.5
t118 83t154 31q66 0 121.5 -21.5t95.5 -60t62.5 -91.5t22.5 -116q0 -55 -14.5 -99t-40 -75t-60.5 -47.5t-75 -16.5q-35 0 -58.5 18.5t-27.5 58.5h-2q-47 -77 -129 -77q-49 0 -80.5 34t-31.5 96q0 46 16.5 88t46.5 74t73.5 51.5t97.5 19.5q33 0 66.5 -7t52.5 -18l-30 -185
q-15 -86 25 -87q16 0 33 10t31.5 31t23.5 53t9 75q0 49 -15.5 91t-46 73t-75 49t-102.5 18q-57 0 -109 -21.5t-91.5 -62t-63 -98t-23.5 -129.5q0 -63 19 -111.5t53 -82t81 -51t103 -17.5q38 0 76.5 8t68.5 24z" />
    <glyph glyph-name="A" unicode="A" horiz-adv-x="656" 
d="M223 173l-48 -173h-158l206 674h200l209 -674h-164l-52 173h-193zM394 287l-42 143q-9 30 -17.5 65t-16.5 65h-2q-8 -30 -15.5 -65.5t-15.5 -64.5l-40 -143h149z" />
    <glyph glyph-name="B" unicode="B" horiz-adv-x="604" 
d="M66 665q15 3 37 5.5t48 4.5t54.5 3t57.5 1q70 0 116 -8t83 -30q35 -19 58 -52.5t23 -79.5q0 -45 -27 -84t-84 -60v-2q58 -16 96 -58t38 -108q0 -46 -19 -81.5t-51 -61.5q-37 -29 -100.5 -45t-164.5 -16q-57 0 -98 3t-67 7v662zM217 407h50q60 0 91.5 22.5t31.5 60.5
t-28 58t-80 20q-25 0 -40 -1t-25 -3v-157zM217 108q11 -2 25 -2h34q26 0 49.5 5t41.5 16.5t28.5 30t10.5 45.5q0 25 -10.5 43.5t-29.5 29.5t-44 16.5t-53 5.5h-52v-190z" />
    <glyph glyph-name="C" unicode="C" horiz-adv-x="595" 
d="M561 19q-21 -11 -66 -20t-107 -9q-87 0 -153.5 25.5t-110.5 71t-66.5 107t-22.5 133.5q0 86 29 153t78.5 112.5t116.5 69t144 23.5q60 0 103 -9.5t63 -20.5l-31 -121q-23 10 -55 17.5t-73 7.5q-45 0 -84.5 -14t-68.5 -41.5t-45.5 -69.5t-16.5 -98q0 -102 56.5 -161
t159.5 -59q35 0 69.5 6.5t57.5 15.5z" />
    <glyph glyph-name="D" unicode="D" horiz-adv-x="696" 
d="M66 665q42 7 95 10.5t111 3.5q96 0 161.5 -17.5t114.5 -54.5q53 -39 83.5 -101.5t30.5 -152.5q0 -97 -31.5 -164t-80.5 -109q-54 -45 -132.5 -66t-178.5 -21q-60 0 -102 3t-71 7v662zM219 115q10 -2 24.5 -2.5t28.5 -0.5q52 0 94 14t72 43t46 74t16 105
q1 105 -56.5 159.5t-155.5 54.5q-26 0 -42.5 -2t-26.5 -4v-441z" />
    <glyph glyph-name="E" unicode="E" horiz-adv-x="534" 
d="M467 285h-248v-160h277v-125h-430v674h416v-125h-263v-140h248v-124z" />
    <glyph glyph-name="F" unicode="F" horiz-adv-x="527" 
d="M66 674h412v-125h-259v-154h242v-124h-242v-271h-153v674z" />
    <glyph glyph-name="G" unicode="G" horiz-adv-x="682" 
d="M629 31q-18 -6 -42.5 -12.5t-54 -12.5t-62.5 -9.5t-66 -3.5q-93 0 -160 23t-114 68q-47 44 -71.5 107t-23.5 138q0 84 29.5 149.5t80.5 110.5t121.5 68.5t153.5 23.5q66 0 114 -10.5t73 -22.5l-32 -122q-28 12 -64.5 20.5t-92.5 8.5q-48 0 -88.5 -13.5t-70.5 -40.5
t-47 -68t-17 -96q0 -52 15.5 -93t43.5 -69.5t67 -43.5t86 -15q55 0 75 10v141h-104v119h251v-355z" />
    <glyph glyph-name="H" unicode="H" horiz-adv-x="689" 
d="M219 674v-259h251v259h152v-674h-152v282h-251v-282h-153v674h153z" />
    <glyph glyph-name="I" unicode="I" horiz-adv-x="285" 
d="M219 674v-674h-153v674h153z" />
    <glyph glyph-name="J" unicode="J" horiz-adv-x="411" 
d="M198 674h152v-426q0 -72 -16.5 -121.5t-48 -80t-76 -44t-99.5 -13.5q-26 0 -57 4t-54 12l17 123q16 -5 35.5 -8.5t42.5 -3.5q24 0 43 6t32.5 21.5t21 41.5t7.5 65v424z" />
    <glyph glyph-name="K" unicode="K" horiz-adv-x="614" 
d="M66 674h151v-298h3q11 20 23 38t23 36l153 224h187l-223 -287l235 -387h-178l-165 291l-58 -71v-220h-151v674z" />
    <glyph glyph-name="L" unicode="L" horiz-adv-x="511" 
d="M66 674h153v-546h268v-128h-421v674z" />
    <glyph glyph-name="M" unicode="M" horiz-adv-x="846" 
d="M636 258q-2 61 -4 132t-2 145h-3q-16 -65 -35.5 -133t-39.5 -128l-82 -263h-119l-72 261q-17 60 -33 128.5t-28 134.5h-2q-3 -69 -5.5 -142.5t-6.5 -136.5l-12 -256h-141l43 674h203l66 -225q16 -59 31 -120t26 -121h3q14 59 30.5 122t33.5 120l72 224h199l37 -674h-149z
" />
    <glyph glyph-name="N" unicode="N" horiz-adv-x="690" 
d="M66 0v674h178l140 -247q30 -54 58.5 -114t51.5 -117h3q-8 67 -10.5 136t-2.5 145v197h140v-674h-160l-144 260q-30 54 -61 116t-56 122l-3 -1q3 -67 4.5 -139t1.5 -155v-203h-140z" />
    <glyph glyph-name="O" unicode="O" horiz-adv-x="717" 
d="M363 685q78 0 137.5 -27t100 -73.5t61.5 -108.5t21 -132q0 -83 -24 -149t-67.5 -111.5t-104.5 -70t-135 -24.5q-75 0 -134 26.5t-99.5 73t-62 109t-21.5 134.5q0 76 23.5 140.5t66 111.5t103 74t135.5 27zM359 564q-39 0 -69 -17.5t-51 -48t-32 -72.5t-11 -91
q0 -50 11.5 -91t32.5 -71t51.5 -46.5t68.5 -16.5q39 0 69 17.5t50.5 48t31.5 72.5t11 91q0 45 -10.5 86t-31.5 72t-51.5 49t-69.5 18z" />
    <glyph glyph-name="P" unicode="P" horiz-adv-x="581" 
d="M66 665q35 6 85.5 10t120.5 4q71 0 121.5 -13.5t84.5 -40.5q32 -26 52 -66t20 -90q0 -101 -62 -160q-39 -37 -95 -54t-124 -17q-31 0 -52 3v-241h-151v665zM217 359q17 -4 51 -4q61 0 96 29t35 81q0 47 -31 73t-88 26q-23 0 -39 -2t-24 -4v-199z" />
    <glyph glyph-name="Q" unicode="Q" horiz-adv-x="717" 
d="M642 -116q-72 21 -135 43.5t-131 51.5q-21 8 -47 10q-57 4 -110 27t-94 65.5t-65.5 104.5t-24.5 145q0 76 23 140.5t66 112t104 74.5t136 27q77 0 136.5 -27.5t100 -74t61.5 -108t21 -130.5q0 -57 -12.5 -106t-34 -87t-51 -65.5t-62.5 -42.5v-4q39 -11 81 -20.5t82 -17.5
zM359 110q39 0 69 17t51 48t32 72.5t11 91.5q0 46 -10.5 87t-31.5 71.5t-51 48.5t-69 18t-69.5 -18t-51.5 -49t-32 -72.5t-11 -88.5q0 -48 11 -89.5t32 -71.5t51.5 -47.5t68.5 -17.5z" />
    <glyph glyph-name="R" unicode="R" horiz-adv-x="593" 
d="M66 665q37 6 89.5 10t113.5 4q75 0 128.5 -12t89.5 -41q62 -50 62 -141q0 -32 -10.5 -59t-27.5 -48t-38 -36t-43 -23v-3q35 -14 56 -46.5t34 -79.5q8 -29 15.5 -58.5t15 -55.5t13.5 -46t11 -30h-156q-8 14 -20 54t-27 103q-7 31 -16 52t-22 33t-30.5 17.5t-40.5 5.5h-46
v-265h-151v665zM217 375h60q57 0 89 26t32 71q0 47 -29.5 70t-82.5 24q-28 0 -44.5 -1.5t-24.5 -3.5v-186z" />
    <glyph glyph-name="S" unicode="S" horiz-adv-x="540" 
d="M71 157q31 -16 75.5 -29t93.5 -13q53 0 80 20t27 53q0 32 -26 52.5t-87 42.5q-84 29 -134.5 77t-50.5 122q0 43 17.5 80t50.5 64.5t80 43t107 15.5q57 0 99.5 -10t72.5 -24l-34 -123q-20 10 -55.5 21t-85.5 11t-74 -19.5t-24 -45.5q0 -16 7.5 -28.5t22.5 -23t38.5 -21
t56.5 -22.5q90 -33 132.5 -81t42.5 -120q0 -42 -16.5 -80t-50 -66.5t-85 -45.5t-120.5 -17q-58 0 -110 12.5t-81 28.5z" />
    <glyph glyph-name="T" unicode="T" horiz-adv-x="548" 
d="M196 546h-181v128h518v-128h-184v-546h-153v546z" />
    <glyph glyph-name="U" unicode="U" horiz-adv-x="682" 
d="M218 674v-388q0 -88 31.5 -131.5t90.5 -43.5q60 0 92 42.5t32 132.5v388h152v-378q0 -156 -74.5 -231.5t-206.5 -75.5q-128 0 -199 74t-71 235v376h153z" />
    <glyph glyph-name="V" unicode="V" horiz-adv-x="636" 
d="M225 0l-216 674h167l82 -285q17 -60 32.5 -119t27.5 -122h3q13 61 28.5 120.5t32.5 117.5l86 288h162l-227 -674h-178z" />
    <glyph glyph-name="W" unicode="W" horiz-adv-x="888" 
d="M175 0l-160 674h163l51 -278q11 -60 21.5 -122t18.5 -113h2q8 55 19.5 114.5t24.5 122.5l57 276h162l54 -284q11 -60 19.5 -114.5t16.5 -111.5h2q8 57 18 115.5t21 118.5l55 276h155l-174 -674h-165l-57 290q-10 51 -18 100.5t-14 107.5h-2q-9 -57 -18 -107t-21 -101
l-64 -290h-167z" />
    <glyph glyph-name="X" unicode="X" horiz-adv-x="613" 
d="M421 0l-61 122q-19 35 -32.5 63.5t-27.5 57.5h-2q-11 -29 -23.5 -57.5t-28.5 -63.5l-56 -122h-174l195 341l-188 333h175l59 -123q15 -31 27 -57t24 -55h2q12 32 22.5 57.5t23.5 54.5l57 123h174l-190 -329l200 -345h-176z" />
    <glyph glyph-name="Y" unicode="Y" horiz-adv-x="603" 
d="M222 0v276l-213 398h174l69 -162q16 -37 27.5 -66.5t24.5 -62.5h2q11 32 23.5 62.5t27.5 66.5l68 162h171l-222 -393v-281h-152z" />
    <glyph glyph-name="Z" unicode="Z" horiz-adv-x="577" 
d="M23 82l321 462v4h-291v126h489v-88l-314 -456v-4h319v-126h-524v82z" />
    <glyph glyph-name="bracketleft" unicode="[" horiz-adv-x="314" 
d="M68 -112v797h205v-84h-95v-629h95v-84h-205z" />
    <glyph glyph-name="backslash" unicode="\" horiz-adv-x="330" 
d="M214 -40l-202 725h101l201 -725h-100z" />
    <glyph glyph-name="bracketright" unicode="]" horiz-adv-x="314" 
d="M246 686v-798h-204v84h95v630h-95v84h204z" />
    <glyph glyph-name="asciicircum" unicode="^" horiz-adv-x="596" 
d="M445 177l-146 356h-3l-147 -356h-107l210 473h92l210 -473h-109z" />
    <glyph glyph-name="underscore" unicode="_" horiz-adv-x="500" 
d="M500 -75v-50h-500v50h500z" />
    <glyph glyph-name="grave" unicode="`" horiz-adv-x="300" 
d="M144 702l86 -152h-104l-122 152h140z" />
    <glyph glyph-name="a" unicode="a" horiz-adv-x="528" 
d="M339 0l-9 49h-3q-24 -29 -60 -44.5t-80 -15.5q-37 0 -66.5 12.5t-49.5 33.5t-31 48t-11 56q0 48 20.5 83t58 58.5t90.5 34.5t118 11v7q0 10 -3.5 21t-13 20.5t-27 15.5t-45.5 6q-38 0 -74.5 -11t-60.5 -26l-28 98q26 14 74.5 28.5t115.5 14.5q61 0 102.5 -17t66.5 -45.5
t35.5 -67t10.5 -81.5v-170q0 -35 1.5 -67t5.5 -52h-137zM321 231q-30 0 -56 -3.5t-45 -12.5t-30 -24t-11 -37q0 -29 17 -43.5t43 -14.5q29 0 50 16.5t29 39.5q3 12 3 26v53z" />
    <glyph glyph-name="b" unicode="b" horiz-adv-x="598" 
d="M57 0q2 24 3 64t1 82v564h152v-279h2q22 32 59.5 50.5t88.5 18.5q44 0 81 -17.5t64 -50t42 -78t15 -101.5q0 -66 -19.5 -115.5t-51 -82.5t-71.5 -49.5t-82 -16.5q-43 0 -82 17.5t-65 61.5h-2l-6 -68h-129zM213 208q0 -15 3 -27q8 -31 32 -51.5t57 -20.5q49 0 77 36
t28 102q0 57 -26 96.5t-79 39.5q-31 0 -56 -21t-33 -54q-3 -14 -3 -28v-72z" />
    <glyph glyph-name="c" unicode="c" horiz-adv-x="451" 
d="M428 12q-20 -9 -56 -15.5t-80 -6.5q-59 0 -107 17.5t-82 50t-52 78.5t-18 104q0 54 18 101t53.5 82.5t88 56t120.5 20.5q30 0 61 -5t55 -14l-24 -113q-14 6 -34.5 10.5t-50.5 4.5t-54.5 -10t-41.5 -28.5t-26 -43.5t-9 -55q0 -34 10.5 -59.5t28.5 -43t42.5 -26t52.5 -8.5
q27 0 48.5 4t38.5 11z" />
    <glyph glyph-name="d" unicode="d" horiz-adv-x="596" 
d="M535 710v-564q0 -42 1 -81.5t3 -64.5h-135l-7 72h-2q-23 -42 -64 -62.5t-89 -20.5q-44 0 -82 18t-66 50.5t-44.5 79t-16.5 103.5q0 62 17.5 110.5t47.5 81.5t70 50.5t84 17.5q45 0 78.5 -14.5t50.5 -40.5h2v265h152zM383 282q0 6 -0.5 13.5t-1.5 13.5q-7 31 -30.5 53
t-58.5 22q-26 0 -45.5 -11t-33 -29.5t-20 -44t-6.5 -54.5q0 -63 28 -99t76 -36q33 0 57 20.5t31 52.5q4 15 4 35v64z" />
    <glyph glyph-name="e" unicode="e" horiz-adv-x="528" 
d="M178 196q2 -24 13.5 -41.5t30.5 -29t43 -17t51 -5.5q39 0 71.5 5t63.5 15l20 -103q-38 -15 -82.5 -22.5t-94.5 -7.5q-125 0 -193 67t-68 182q0 46 14.5 93t45 84t77 60.5t110.5 23.5q59 0 100.5 -21t67.5 -55.5t38 -78.5t12 -89q0 -20 -1.5 -36t-3.5 -24h-315zM357 300
q0 14 -3.5 31t-13 32t-26.5 25.5t-43 10.5q-24 0 -41 -9.5t-28.5 -24.5t-17.5 -32.5t-7 -32.5h180z" />
    <glyph glyph-name="f" unicode="f" horiz-adv-x="341" 
d="M78 0v377h-64v112h64v19q0 45 14.5 89.5t47.5 74.5q29 27 65.5 38t69.5 11q26 0 45.5 -2.5t35.5 -7.5l-6 -117q-10 3 -22 5t-27 2q-38 0 -54.5 -25.5t-16.5 -61.5v-25h98v-112h-97v-377h-153z" />
    <glyph glyph-name="g" unicode="g" horiz-adv-x="585" 
d="M528 489q-2 -23 -3 -56.5t-1 -88.5v-273q0 -71 -16 -127t-58 -93q-41 -35 -93 -47.5t-106 -12.5q-48 0 -95.5 9.5t-80.5 28.5l30 115q23 -14 61 -25.5t81 -11.5q54 0 90.5 30.5t36.5 98.5v32h-2q-22 -31 -56 -47.5t-76 -16.5q-45 0 -83 17.5t-65.5 49t-43 75.5t-15.5 97
q0 59 18 106.5t48 81t70.5 51.5t85.5 18q51 0 83 -19.5t51 -49.5h2l5 58h132zM372 290q0 16 -3 28q-8 30 -29 48.5t-53 18.5q-42 0 -71 -36t-29 -103q0 -55 26 -92.5t74 -37.5q29 0 50.5 17.5t29.5 44.5q3 8 4 19t1 21v72z" />
    <glyph glyph-name="h" unicode="h" horiz-adv-x="586" 
d="M61 710h152v-279h2q23 30 60 50q35 19 79 19q36 0 67.5 -13t54.5 -39t36 -66.5t13 -95.5v-286h-152v269q0 48 -18 78t-61 30q-30 0 -49 -16.5t-27 -36.5q-3 -8 -4 -17t-1 -17v-290h-152v710z" />
    <glyph glyph-name="i" unicode="i" horiz-adv-x="274" 
d="M61 0v489h152v-489h-152zM137 702q37 0 58.5 -22t22.5 -55q0 -32 -22 -54t-60 -22q-36 0 -58 22t-21 54q-1 33 21 55t59 22z" />
    <glyph glyph-name="j" unicode="j" horiz-adv-x="291" 
d="M-40 -90q30 2 53 9.5t37 22.5q8 9 14 21t9.5 30.5t5 45t1.5 62.5v388h153v-424q0 -81 -17.5 -131.5t-51.5 -82.5t-84 -46t-105 -14zM157 702q37 0 58 -22t22 -55q0 -32 -22 -54t-60 -22q-36 0 -57.5 22t-21.5 54q0 33 21.5 55t59.5 22z" />
    <glyph glyph-name="k" unicode="k" horiz-adv-x="542" 
d="M213 283h2q8 15 17 30t18 29l99 147h183l-175 -198l200 -291h-187l-118 201l-39 -48v-153h-152v710h152v-427z" />
    <glyph glyph-name="l" unicode="l" horiz-adv-x="275" 
d="M61 710h152v-710h-152v710z" />
    <glyph glyph-name="m" unicode="m" horiz-adv-x="860" 
d="M61 333q0 46 -1 85t-3 71h128l7 -66h3q8 12 20 25.5t30 25t42 19t56 7.5q48 0 83 -22.5t51 -60.5h2q26 37 63 59q40 24 93 24q35 0 65.5 -12.5t52.5 -38.5t34.5 -66t12.5 -95v-288h-148v266q0 54 -17.5 83t-54.5 29q-26 0 -44 -15.5t-26 -37.5q-3 -8 -4.5 -19t-1.5 -20
v-286h-148v274q0 47 -17 75.5t-53 28.5q-29 0 -46.5 -18t-24.5 -37q-4 -9 -5 -19t-1 -19v-285h-148v333z" />
    <glyph glyph-name="n" unicode="n" horiz-adv-x="586" 
d="M61 333q0 46 -1 85t-3 71h132l7 -67h3q7 12 20.5 25.5t32 25t43.5 19.5t55 8q37 0 69.5 -12.5t55.5 -38.5t36.5 -65.5t13.5 -93.5v-290h-152v271q0 48 -17.5 77t-59.5 29q-32 0 -50.5 -18t-26.5 -39q-3 -7 -4.5 -17t-1.5 -21v-282h-152v333z" />
    <glyph glyph-name="o" unicode="o" horiz-adv-x="577" 
d="M294 500q56 0 102 -18.5t79 -51.5t51 -79t18 -101q0 -67 -22 -116t-58 -81.5t-82.5 -48t-95.5 -15.5q-54 0 -100 17t-80 49.5t-53.5 79.5t-19.5 106t18.5 107t53 81.5t82.5 52t107 18.5zM290 392q-27 0 -46 -13t-31 -33.5t-17.5 -47t-5.5 -53.5q0 -63 25.5 -105t74.5 -42
q45 0 71 40.5t26 106.5q0 27 -5.5 53.5t-17 47.5t-30 33.5t-44.5 12.5z" />
    <glyph glyph-name="p" unicode="p" horiz-adv-x="598" 
d="M61 325q0 48 -1 89t-3 75h132l7 -68h2q55 79 163 79q40 0 77 -17t65 -49t44.5 -78.5t16.5 -104.5q0 -67 -19.5 -116t-51 -81.5t-71 -48.5t-80.5 -16q-45 0 -77.5 16t-49.5 40h-2v-243h-152v523zM213 210q0 -19 3 -32q8 -31 32 -51.5t57 -20.5q50 0 77.5 37.5t27.5 100.5
q0 59 -26 98t-77 39q-32 0 -57.5 -21.5t-33.5 -55.5q-3 -12 -3 -27v-67z" />
    <glyph glyph-name="q" unicode="q" horiz-adv-x="595" 
d="M383 61h-2q-23 -35 -59.5 -53.5t-85.5 -18.5q-40 0 -76.5 17t-64.5 49t-45 78t-17 105q0 66 19 115t50 81.5t69.5 49t77.5 16.5q95 0 136 -68h2l4 57h147q-1 -35 -2 -72t-1 -75v-540h-152v259zM383 284q0 13 -3 25q-6 29 -29 51t-58 22q-53 0 -79 -39.5t-26 -98.5
q0 -62 27.5 -98.5t75.5 -36.5q32 0 56 19.5t32 49.5q2 8 3 16.5t1 16.5v73z" />
    <glyph glyph-name="r" unicode="r" horiz-adv-x="380" 
d="M61 328q0 54 -1 91.5t-3 69.5h131l5 -90h4q9 27 24.5 46t33.5 31t37 18t37 6h17q7 0 15 -2v-143q-8 2 -18 3t-23 1q-42 0 -69 -21t-35 -56q-3 -15 -3 -34v-248h-152v328z" />
    <glyph glyph-name="s" unicode="s" horiz-adv-x="434" 
d="M60 133q10 -6 25.5 -13t33.5 -12t36.5 -8.5t35.5 -3.5q35 0 50 11t15 30t-14.5 30.5t-57.5 25.5q-76 26 -108 64.5t-31 82.5q0 34 14 63.5t40 51t63 33.5t82 12q43 0 79 -8.5t59 -19.5l-27 -105q-17 9 -45.5 18.5t-60.5 9.5q-58 0 -58 -40q0 -17 17 -28.5t62 -27.5
q70 -24 101 -60.5t32 -90.5q0 -34 -13.5 -63t-40 -50t-66.5 -33t-92 -12q-48 0 -89 9.5t-69 24.5z" />
    <glyph glyph-name="t" unicode="t" horiz-adv-x="367" 
d="M231 629v-140h109v-112h-109v-177q0 -45 12.5 -65.5t47.5 -20.5q14 0 25.5 1t19.5 3l1 -115q-15 -6 -41 -9.5t-58 -3.5q-37 0 -66.5 11.5t-47.5 30.5q-42 43 -42 145v200h-65v112h65v106z" />
    <glyph glyph-name="u" unicode="u" horiz-adv-x="583" 
d="M522 157q0 -48 1 -87t3 -70h-132l-7 69h-3q-7 -11 -19.5 -25t-31 -26t-44 -20.5t-58.5 -8.5q-37 0 -68.5 12t-54.5 38t-36 66t-13 97v287h153v-263q0 -54 18 -84t58 -30q32 0 50 17.5t26 35.5q3 7 4 15.5t1 17.5v291h153v-332z" />
    <glyph glyph-name="v" unicode="v" horiz-adv-x="530" 
d="M174 489l66 -227q17 -59 28 -119h3q6 30 12.5 58.5t14.5 60.5l63 227h160l-182 -489h-152l-178 489h165z" />
    <glyph glyph-name="w" unicode="w" horiz-adv-x="759" 
d="M166 489l39 -200q8 -38 15 -78.5t13 -82.5h2q8 42 17.5 83t18.5 77l52 201h120l49 -195q10 -42 19 -83t17 -83h2q5 42 12.5 83.5t15.5 83.5l42 194h149l-150 -489h-143l-46 172q-9 36 -16 71.5t-15 80.5h-2q-7 -46 -14.5 -81.5t-17.5 -70.5l-49 -172h-143l-142 489h155z
" />
    <glyph glyph-name="x" unicode="x" horiz-adv-x="519" 
d="M177 489l48 -81q11 -19 20.5 -37.5t19.5 -35.5h2q10 20 19 38.5t19 36.5l43 79h165l-161 -233l163 -256h-172l-49 88q-11 18 -20 36.5t-18 37.5h-3q-9 -20 -18.5 -38t-18.5 -36l-46 -88h-167l166 249l-162 240h170z" />
    <glyph glyph-name="y" unicode="y" horiz-adv-x="523" 
d="M175 489l73 -240q6 -22 12.5 -46.5t11.5 -44.5h3q5 20 11 45t11 46l60 240h163l-114 -322q-26 -73 -48.5 -125t-43 -89.5t-40 -63t-40.5 -43.5q-40 -35 -79 -49t-68 -18l-32 129q31 5 66 26q17 9 34.5 25.5t28.5 35.5q8 11 8 22q0 4 -1 10t-6 15l-179 447h169z" />
    <glyph glyph-name="z" unicode="z" horiz-adv-x="469" 
d="M22 87l154 193q21 25 39 44.5t39 42.5v2h-215v120h400v-91l-147 -185q-20 -24 -39.5 -47t-40.5 -43v-2h235v-121h-425v87z" />
    <glyph glyph-name="braceleft" unicode="{" horiz-adv-x="314" 
d="M30 326q26 1 41 7.5t23 16t10 21.5t2 23q0 19 -2 38.5t-4 39.5t-3.5 40t-1.5 39q0 71 41 103t111 32h35v-85h-18q-34 0 -47.5 -19t-13.5 -52q0 -14 1.5 -27.5t3.5 -29.5q2 -15 3.5 -32t1.5 -36q1 -57 -21 -82t-64 -34v-2q42 -9 64 -34.5t21 -82.5q0 -20 -1.5 -37
t-3.5 -33q-2 -15 -3.5 -29t-1.5 -27q0 -33 13 -52.5t48 -19.5h18v-84h-36q-33 0 -61 7t-48 23.5t-31 42t-11 63.5q0 19 1.5 39t3.5 40t4 39.5t2 38.5q0 10 -2 22t-10 22t-23 16.5t-41 7.5v77z" />
    <glyph glyph-name="bar" unicode="|" horiz-adv-x="283" 
d="M194 750v-1000h-106v1000h106z" />
    <glyph glyph-name="braceright" unicode="}" horiz-adv-x="314" 
d="M284 249q-26 -1 -41 -7.5t-22.5 -16.5t-10 -22t-2.5 -22q0 -19 2 -38.5t4 -39.5l4 -40q2 -20 2 -39q0 -38 -11 -63.5t-31 -42t-48 -23.5t-62 -7h-36v84h18q35 1 48 20t13 52q0 13 -1.5 27t-3.5 29q-2 16 -3.5 33t-1.5 37q-1 57 21.5 82.5t64.5 34.5v2q-42 9 -64.5 34
t-21.5 82q0 19 1.5 36t3.5 32q2 16 3.5 29.5t1.5 27.5q0 33 -13.5 51.5t-47.5 19.5h-18v85h35q71 0 112 -32t41 -103q0 -19 -2 -39l-4 -40q-2 -20 -4 -39.5t-2 -38.5q0 -11 2.5 -23t10 -21.5t22.5 -16t41 -7.5v-77z" />
    <glyph glyph-name="asciitilde" unicode="~" horiz-adv-x="596" 
d="M43 192q0 50 10 85.5t28.5 58t44.5 33t56 10.5q37 0 67 -12t73 -36q33 -18 55 -28.5t40 -10.5t28.5 18t12.5 63h95q2 -54 -7.5 -90t-28 -58t-44 -31.5t-53.5 -9.5q-36 0 -67.5 12.5t-72.5 35.5q-33 20 -55 31t-40 11q-19 0 -31.5 -16.5t-15.5 -65.5h-95z" />
    <glyph glyph-name="uni00A0" unicode="&#xa0;" horiz-adv-x="202" 
 />
    <glyph glyph-name="exclamdown" unicode="&#xa1;" horiz-adv-x="268" 
d="M55 -198l22 455h115l22 -455h-159zM134 495q40 0 64.5 -25.5t24.5 -66.5q0 -39 -24 -64.5t-65 -25.5q-40 0 -64.5 25.5t-24.5 64.5q0 41 25 66.5t64 25.5z" />
    <glyph glyph-name="cent" unicode="&#xa2;" 
d="M279 -12v98q-93 15 -148 77q-27 31 -41.5 72.5t-14.5 91.5q0 45 13.5 86t39.5 74t64 56.5t87 33.5v96h99v-91q23 -2 48.5 -7t46.5 -13l-24 -112q-17 8 -38.5 13t-50.5 5q-60 0 -94.5 -37.5t-34.5 -97.5q0 -34 10.5 -59t28 -41.5t41 -25t50.5 -8.5q31 0 55 4.5t44 12.5
l18 -109q-18 -9 -44.5 -15t-56.5 -8v-96h-98z" />
    <glyph glyph-name="sterling" unicode="&#xa3;" 
d="M51 0v81q20 8 40 22.5t36 33.5t26 42t10 49q0 19 -3 40h-98v103h80q-8 40 -8 81q0 47 16.5 85.5t46.5 66t71.5 42.5t91.5 15q42 0 71.5 -7.5t46.5 -16.5l-25 -115q-14 8 -35 13t-49 5q-27 0 -44.5 -8t-28.5 -21t-15.5 -30t-4.5 -35q0 -38 9 -75h137v-103h-124
q1 -19 -1 -36.5t-8 -34.5q-7 -19 -19 -37t-30 -34v-2h267v-124h-456z" />
    <glyph glyph-name="currency" unicode="&#xa4;" 
d="M278 550q35 0 64 -9t52 -26l77 83l66 -68l-87 -78q11 -20 21.5 -47.5t10.5 -68.5q0 -43 -10 -72t-24 -49l84 -81l-65 -66l-74 87q-23 -20 -55 -29.5t-62 -9.5t-62 9.5t-54 28.5l-72 -86l-65 66l83 79q-14 20 -25 49t-11 71q0 43 11 71t24 48l-87 77l67 70l77 -86
q46 37 116 37zM276 448q-39 0 -65.5 -31t-26.5 -83q0 -30 8.5 -52t22 -36.5t29.5 -21.5t32 -7q17 0 33.5 7t30 21.5t21.5 37t8 52.5q0 49 -26 81t-67 32z" />
    <glyph glyph-name="yen" unicode="&#xa5;" 
d="M201 0v160h-155v71h155v64h-155v71h119l-163 284h163l70 -160q14 -30 23 -56.5t19 -52.5h2q10 25 20 53t23 57l71 159h160l-171 -284h119v-71h-157v-64h157v-71h-157v-160h-143z" />
    <glyph glyph-name="brokenbar" unicode="&#xa6;" horiz-adv-x="283" 
d="M194 174v-350h-106v350h106zM194 674v-350h-106v350h106z" />
    <glyph glyph-name="section" unicode="&#xa7;" horiz-adv-x="561" 
d="M163 343q0 -25 21 -43.5t66 -34.5q35 -13 68 -23.5t50 -19.5q13 8 21 22t8 30q0 22 -16 40t-53 32q-32 12 -69 25t-60 24q-16 -8 -26 -21.5t-10 -30.5zM440 562q-22 11 -54 19.5t-77 8.5t-67.5 -13t-22.5 -35q0 -23 26.5 -38t80.5 -32q40 -12 75 -26.5t60.5 -34.5
t40 -47.5t14.5 -66.5q0 -40 -20 -70.5t-53 -51.5q14 -11 29 -34.5t15 -57.5q0 -46 -21.5 -76.5t-54 -49t-71.5 -26.5t-74 -8q-45 0 -95.5 9t-91.5 35l29 92q11 -6 27.5 -13.5t36.5 -14t42 -10.5t45 -4q40 0 65.5 13t25.5 39q0 25 -24.5 41t-81.5 34q-40 12 -76 26.5
t-63.5 34t-43.5 46.5t-16 65q0 32 20.5 66.5t62.5 55.5q-16 13 -28 38t-12 53q0 38 17 67t46.5 48.5t69 29.5t85.5 10q44 0 83.5 -6.5t74.5 -23.5z" />
    <glyph glyph-name="dieresis" unicode="&#xa8;" horiz-adv-x="300" 
d="M46 557q-31 0 -51.5 20.5t-20.5 49.5q0 31 21 51t51 20q29 0 48.5 -20t19.5 -51q0 -29 -19.5 -49.5t-48.5 -20.5zM256 557q-31 0 -51 20.5t-20 49.5q0 31 20.5 51t50.5 20q29 0 49 -20t20 -51q0 -29 -19.5 -49.5t-49.5 -20.5z" />
    <glyph glyph-name="copyright" unicode="&#xa9;" horiz-adv-x="677" 
d="M340 648q64 0 119.5 -24t97 -66t65 -98t23.5 -120q0 -65 -23.5 -121.5t-65 -98.5t-97 -66t-119.5 -24q-65 0 -121 24t-97.5 66t-65.5 98.5t-24 121.5q0 64 24 120t65.5 98t97.5 66t121 24zM339 591q-50 0 -94 -19.5t-77 -54t-52 -80.5t-19 -98q0 -53 19 -98.5t52 -80
t77 -54t94 -19.5t94 19.5t76.5 54t51.5 80t19 98.5q0 52 -19 98t-51.5 80.5t-76.5 54t-94 19.5zM459 439q-9 5 -35.5 13.5t-59.5 8.5q-58 0 -91 -32.5t-33 -91.5q0 -55 33.5 -90t89.5 -35q31 0 57 7t43 18l15 -52q-26 -17 -58.5 -24.5t-65.5 -7.5q-44 0 -78.5 14t-58 38.5
t-36 57.5t-12.5 71q0 43 16 77.5t43 58.5t62 37t74 13q36 0 68 -8.5t42 -19.5z" />
    <glyph glyph-name="ordfeminine" unicode="&#xaa;" horiz-adv-x="378" 
d="M247 266l-7 33h-2q-17 -17 -42 -27.5t-57 -10.5q-50 0 -78 28t-28 70q0 58 53.5 87t143.5 29v7q0 3 -2 9.5t-8.5 13t-18.5 11t-32 4.5q-27 0 -51 -7t-41 -18l-20 64q19 11 53 21.5t79 10.5q41 0 69 -11.5t45.5 -31t25 -44.5t7.5 -53v-107q0 -23 1 -43.5t4 -34.5h-94z
M234 416q-41 0 -70 -11.5t-29 -37.5q0 -17 12.5 -27.5t31.5 -10.5q16 0 30 8.5t20 21.5q5 12 5 22v35z" />
    <glyph glyph-name="guillemotleft" unicode="&#xab;" horiz-adv-x="465" 
d="M129 252l119 -191h-106l-116 191l116 191h106zM323 252l119 -191h-106l-116 191l116 191h106z" />
    <glyph glyph-name="logicalnot" unicode="&#xac;" horiz-adv-x="596" 
d="M556 422v-316h-97v223h-419v93h516z" />
    <glyph glyph-name="uni00AD" unicode="&#xad;" horiz-adv-x="291" 
d="M292 313v-101h-262v101h262z" />
    <glyph glyph-name="registered" unicode="&#xae;" horiz-adv-x="459" 
d="M208 431h-49v159q8 2 26.5 3.5t43.5 1.5q27 0 41 -3.5t23 -8.5q17 -12 17 -35q0 -12 -10 -21.5t-27 -14.5v-2q26 -9 33 -41q4 -17 6.5 -25t4.5 -13h-55q-4 5 -6.5 14t-4.5 20q-5 24 -27 24h-16v-58zM210 522h14q14 0 22 5t8 14q0 20 -28 20q-5 0 -9 -0.5t-7 -0.5v-38z
M230 685q37 0 69.5 -13.5t56.5 -37t37.5 -54.5t13.5 -67t-13.5 -67.5t-37.5 -55t-56.5 -37t-69.5 -13.5t-69.5 13.5t-56.5 37t-38 55t-14 67.5t14 67t38 54.5t56.5 37t69.5 13.5zM229 642q-27 0 -49.5 -10t-39 -28t-26 -41.5t-9.5 -50.5t9.5 -50.5t26 -41t39.5 -27.5t50 -10
t50 10t39.5 27.5t26 41.5t9.5 51t-9.5 50.5t-26 41t-40 27.5t-50.5 10z" />
    <glyph glyph-name="macron" unicode="&#xaf;" horiz-adv-x="300" 
d="M276 665v-83h-251v83h251z" />
    <glyph glyph-name="degree" unicode="&#xb0;" horiz-adv-x="356" 
d="M179 685q34 0 62 -11.5t48 -31.5t31 -46.5t11 -56.5q0 -32 -12.5 -59.5t-33.5 -47t-48.5 -30.5t-58.5 -11q-33 0 -60.5 11.5t-48 31t-31.5 46t-11 56.5q0 31 11.5 58t32 47.5t48.5 32t60 11.5zM179 615q-33 0 -52.5 -23.5t-19.5 -54.5q0 -32 20.5 -54t51.5 -22t51 22
t20 55q0 29 -18 53t-53 24z" />
    <glyph glyph-name="plusminus" unicode="&#xb1;" horiz-adv-x="596" 
d="M347 579v-173h209v-93h-209v-176h-98v176h-209v93h209v173h98zM556 93v-93h-516v93h516z" />
    <glyph glyph-name="twosuperior" unicode="&#xb2;" horiz-adv-x="352" 
d="M15 499l61 55q28 25 50 45t37 36.5t22.5 31.5t7.5 31q0 22 -15.5 35.5t-43.5 13.5q-25 0 -47 -8.5t-39 -19.5l-30 76q25 17 62.5 30t82.5 13q75 0 114 -35t39 -86q0 -27 -9.5 -49.5t-25.5 -42t-37 -38t-43 -36.5l-24 -20v-2h146v-86h-308v56z" />
    <glyph glyph-name="threesuperior" unicode="&#xb3;" horiz-adv-x="347" 
d="M25 806q22 13 59 22.5t81 9.5q72 0 108.5 -28.5t36.5 -70.5q0 -32 -23.5 -55t-59.5 -34v-2q42 -5 69.5 -29.5t27.5 -62.5q0 -53 -48.5 -85.5t-131.5 -32.5q-41 0 -77 7.5t-58 20.5l23 77q16 -8 43.5 -17t54.5 -9q32 0 52 13t19 33q0 25 -26.5 37.5t-59.5 12.5h-30v68h28
q12 0 26 2t25 7t18.5 12.5t7.5 19.5q0 15 -12.5 25.5t-40.5 10.5q-26 0 -51 -8.5t-39 -16.5z" />
    <glyph glyph-name="acute" unicode="&#xb4;" horiz-adv-x="300" 
d="M302 702l-122 -152h-105l86 152h141z" />
    <glyph glyph-name="mu" unicode="&#xb5;" horiz-adv-x="585" 
d="M388 67q-6 -13 -17 -26.5t-26 -24t-34.5 -17t-43.5 -6.5q-20 0 -38 7.5t-31 21.5v-42q0 -20 0.5 -45t2 -49.5t3.5 -47t5 -36.5h-135q-3 9 -5.5 27.5t-4 43t-2.5 52t-1 54.5v510h152v-273q0 -50 18.5 -77.5t55.5 -27.5q29 0 50 17.5t29 36.5q5 15 5 33v291h152v-330
q0 -32 10 -43.5t32 -12.5l-9 -105q-18 -9 -54 -9q-88 0 -111 78h-3z" />
    <glyph glyph-name="paragraph" unicode="&#xb6;" horiz-adv-x="542" 
d="M206 -47v311h-7q-22 0 -51 11.5t-55 35t-44 59t-18 83.5q0 39 12.5 79.5t45.5 72.5t90.5 52.5t147.5 20.5q45 0 82.5 -2.5t60.5 -8.5v-714h-97v631h-71v-631h-96z" />
    <glyph glyph-name="periodcentered" unicode="&#xb7;" horiz-adv-x="260" 
d="M130 167q-40 0 -65 26t-25 66q0 41 25.5 67t64.5 26q40 0 64.5 -25.5t25.5 -67.5q0 -40 -24.5 -66t-65.5 -26z" />
    <glyph glyph-name="cedilla" unicode="&#xb8;" horiz-adv-x="300" 
d="M203 4l-27 -48q29 -3 50.5 -22.5t21.5 -49.5q0 -24 -10 -41t-26.5 -27.5t-38.5 -15t-46 -4.5t-45 5.5t-36 14.5l20 57q14 -8 28.5 -12.5t26.5 -4.5q14 0 25 6t10 20q0 14 -17.5 23.5t-59.5 12.5l42 86h82z" />
    <glyph glyph-name="onesuperior" unicode="&#xb9;" horiz-adv-x="300" 
d="M118 443v294h-2l-79 -35l-16 83l112 48h102v-390h-117z" />
    <glyph glyph-name="ordmasculine" unicode="&#xba;" horiz-adv-x="386" 
d="M194 591q39 0 69.5 -12t52.5 -34t33.5 -51.5t11.5 -64.5q0 -42 -14.5 -73.5t-38 -52.5t-54 -31.5t-63.5 -10.5q-35 0 -65.5 11.5t-53.5 32.5t-36 51t-13 67t12.5 68t35.5 53.5t54 34.5t69 12zM192 517q-17 0 -28.5 -9t-19 -22.5t-10.5 -29.5t-3 -31q0 -37 16.5 -63.5
t45.5 -26.5t45 25.5t16 66.5q0 16 -4 32t-11.5 29t-19.5 21t-27 8z" />
    <glyph glyph-name="guillemotright" unicode="&#xbb;" horiz-adv-x="465" 
d="M23 443h104l117 -191l-117 -191h-104l119 191zM214 443h105l117 -191l-117 -191h-105l120 191z" />
    <glyph glyph-name="onequarter" unicode="&#xbc;" horiz-adv-x="831" 
d="M132 266v295h-1l-80 -35l-16 82l112 48h102v-390h-117zM173 -11l369 672h82l-368 -672h-83zM635 0v90h-196v63l170 241h134v-230h53v-74h-53v-90h-108zM635 238q0 20 1 38t3 36h-3q-9 -18 -17.5 -34.5t-18.5 -30.5l-56 -81l3 -2h88v74z" />
    <glyph glyph-name="onehalf" unicode="&#xbd;" horiz-adv-x="831" 
d="M120 266v295h-2l-79 -35l-16 82l112 48h102v-390h-117zM149 -11l369 672h82l-368 -672h-83zM485 56l61 56q57 50 87 81t30 63q0 21 -15.5 34.5t-43.5 13.5q-25 0 -47 -8.5t-39 -19.5l-31 76q25 18 63 30.5t83 12.5q75 0 113.5 -35t38.5 -86q0 -27 -9.5 -49t-25.5 -42
t-36.5 -38.5t-42.5 -36.5l-24 -19v-2h146v-87h-308v56z" />
    <glyph glyph-name="threequarters" unicode="&#xbe;" horiz-adv-x="831" 
d="M42 629q22 14 59 23t81 9q73 0 109 -28.5t36 -70.5q0 -32 -23 -54.5t-59 -33.5v-2q42 -5 69.5 -29.5t27.5 -62.5q0 -53 -49 -86t-132 -33q-41 0 -77 8t-57 20l22 78q16 -8 43.5 -17t54.5 -9q32 0 52 12.5t20 32.5q0 26 -26.5 38t-60.5 12h-30v68h28q13 0 26.5 2t24.5 7
t18.5 13t7.5 20q0 15 -12 25t-40 10q-27 0 -52 -8t-39 -16zM205 -11l368 672h83l-368 -672h-83zM644 0v90h-195v63l170 241h133v-230h53v-74h-53v-90h-108zM644 238q0 20 1.5 38t2.5 36h-2q-10 -18 -18.5 -34.5t-17.5 -30.5l-56 -81l2 -2h88v74z" />
    <glyph glyph-name="questiondown" unicode="&#xbf;" horiz-adv-x="445" 
d="M248 495q40 0 64.5 -25.5t24.5 -65.5t-24 -65.5t-65 -25.5q-40 0 -64.5 25.5t-25.5 65.5q0 40 25 65.5t65 25.5zM311 260l1 -25q2 -38 -11.5 -75.5t-46.5 -78.5q-25 -29 -42 -52.5t-17 -49.5t17.5 -42t55.5 -17q26 0 53 7.5t47 21.5l33 -109q-27 -16 -70 -28.5t-97 -12.5
q-50 0 -86 12.5t-59.5 34t-35 50t-11.5 59.5q0 29 8 52.5t20.5 43.5t28 37t29.5 33q27 31 39 59t12 63l-1 17h133z" />
    <glyph glyph-name="Agrave" unicode="&#xc0;" horiz-adv-x="656" 
d="M223 173l-48 -173h-158l206 674h200l209 -674h-164l-52 173h-193zM394 287l-42 143q-9 30 -17.5 65t-16.5 65h-2q-8 -30 -15.5 -65.5t-15.5 -64.5l-40 -143h149zM313 833l84 -121h-122l-122 121h160z" />
    <glyph glyph-name="Aacute" unicode="&#xc1;" horiz-adv-x="656" 
d="M223 173l-48 -173h-158l206 674h200l209 -674h-164l-52 173h-193zM394 287l-42 143q-9 30 -17.5 65t-16.5 65h-2q-8 -30 -15.5 -65.5t-15.5 -64.5l-40 -143h149zM497 833l-122 -123h-122l84 123h160z" />
    <glyph glyph-name="Acircumflex" unicode="&#xc2;" horiz-adv-x="656" 
d="M223 173l-48 -173h-158l206 674h200l209 -674h-164l-52 173h-193zM394 287l-42 143q-9 30 -17.5 65t-16.5 65h-2q-8 -30 -15.5 -65.5t-15.5 -64.5l-40 -143h149zM385 833l101 -123h-107l-50 62h-2l-50 -62h-106l100 123h114z" />
    <glyph glyph-name="Atilde" unicode="&#xc3;" horiz-adv-x="656" 
d="M223 173l-48 -173h-158l206 674h200l209 -674h-164l-52 173h-193zM394 287l-42 143q-9 30 -17.5 65t-16.5 65h-2q-8 -30 -15.5 -65.5t-15.5 -64.5l-40 -143h149zM191 715q-2 63 19.5 95t57.5 32q20 0 35 -6t29 -14q12 -8 23 -13.5t21 -5.5q13 0 18.5 9t8.5 34h68
q2 -68 -18.5 -96.5t-60.5 -28.5q-20 0 -35.5 5.5t-29.5 13.5q-13 7 -22.5 12.5t-19.5 5.5q-21 0 -24 -43h-70z" />
    <glyph glyph-name="Adieresis" unicode="&#xc4;" horiz-adv-x="656" 
d="M223 173l-48 -173h-158l206 674h200l209 -674h-164l-52 173h-193zM394 287l-42 143q-9 30 -17.5 65t-16.5 65h-2q-8 -30 -15.5 -65.5t-15.5 -64.5l-40 -143h149zM228 712q-29 0 -49 20.5t-20 48.5q0 29 20 48.5t49 19.5q28 0 47 -19.5t19 -48.5q0 -28 -18.5 -48.5
t-47.5 -20.5zM435 712q-29 0 -48.5 20.5t-19.5 48.5q0 29 19.5 48.5t48.5 19.5t48 -19.5t19 -48.5q0 -28 -19 -48.5t-48 -20.5z" />
    <glyph glyph-name="Aring" unicode="&#xc5;" horiz-adv-x="656" 
d="M223 173l-48 -173h-158l206 674h200l209 -674h-164l-52 173h-193zM394 287l-42 143q-9 30 -17.5 65t-16.5 65h-2q-8 -30 -15.5 -65.5t-15.5 -64.5l-40 -143h149zM325 898q57 0 85.5 -28.5t28.5 -70.5q0 -41 -30 -69t-84 -28q-55 0 -85 28t-30 68q0 41 29 70.5t86 29.5z
M324 847q-23 0 -33.5 -15t-10.5 -34q0 -17 11.5 -31t32.5 -14t32.5 13t11.5 33q0 19 -11.5 33.5t-32.5 14.5z" />
    <glyph glyph-name="AE" unicode="&#xc6;" horiz-adv-x="868" 
d="M2 0l288 674h513v-125h-277l18 -143h255v-124h-235l20 -157h256v-125h-387l-24 184h-196l-74 -184h-157zM412 306l-20 163q-3 23 -6 48l-6 50h-3q-8 -25 -17 -51t-17 -48l-65 -162h134z" />
    <glyph glyph-name="Ccedilla" unicode="&#xc7;" horiz-adv-x="597" 
d="M561 19q-20 -10 -61 -19t-98 -10l-19 -34q29 -7 51 -27t22 -55q0 -26 -10.5 -43.5t-27.5 -28.5t-38.5 -15.5t-42.5 -4.5q-23 0 -46 4.5t-40 14.5l20 62q11 -7 26.5 -10.5t29.5 -3.5q15 0 25.5 5.5t10.5 19.5q0 15 -18.5 23.5t-60.5 13.5l39 83q-71 9 -125 38t-90 72.5
t-54.5 100.5t-18.5 122q0 86 29 153t78.5 112.5t116.5 69t144 23.5q60 0 103 -9.5t63 -20.5l-31 -121q-23 10 -55 17.5t-73 7.5q-45 0 -84.5 -14t-68.5 -41.5t-45.5 -69.5t-16.5 -98q0 -102 56.5 -161t159.5 -59q35 0 69.5 6.5t57.5 15.5z" />
    <glyph glyph-name="Egrave" unicode="&#xc8;" horiz-adv-x="534" 
d="M467 285h-248v-160h277v-125h-430v674h416v-125h-263v-140h248v-124zM271 833l84 -121h-122l-122 121h160z" />
    <glyph glyph-name="Eacute" unicode="&#xc9;" horiz-adv-x="534" 
d="M467 285h-248v-160h277v-125h-430v674h416v-125h-263v-140h248v-124zM449 833l-123 -123h-121l84 123h160z" />
    <glyph glyph-name="Ecircumflex" unicode="&#xca;" horiz-adv-x="534" 
d="M467 285h-248v-160h277v-125h-430v674h416v-125h-263v-140h248v-124zM336 833l101 -123h-107l-51 62h-2l-50 -62h-106l100 123h115z" />
    <glyph glyph-name="Edieresis" unicode="&#xcb;" horiz-adv-x="534" 
d="M467 285h-248v-160h277v-125h-430v674h416v-125h-263v-140h248v-124zM169 713q-30 0 -50 20t-20 48q0 29 20.5 49t49.5 20q28 0 47 -20t19 -49q0 -28 -19 -48t-47 -20zM376 713q-30 0 -49.5 20t-19.5 48q0 29 20 49t49 20t48 -20t19 -49q0 -28 -19 -48t-48 -20z" />
    <glyph glyph-name="Igrave" unicode="&#xcc;" horiz-adv-x="285" 
d="M219 674v-674h-153v674h153zM133 833l84 -121h-122l-122 121h160z" />
    <glyph glyph-name="Iacute" unicode="&#xcd;" horiz-adv-x="285" 
d="M219 674v-674h-153v674h153zM313 833l-123 -123h-122l85 123h160z" />
    <glyph glyph-name="Icircumflex" unicode="&#xce;" horiz-adv-x="285" 
d="M219 674v-674h-153v674h153zM199 833l101 -123h-107l-50 62h-2l-50 -62h-106l100 123h114z" />
    <glyph glyph-name="Idieresis" unicode="&#xcf;" horiz-adv-x="285" 
d="M219 674v-674h-153v674h153zM40 713q-30 0 -49.5 20t-19.5 48q0 29 20 49t49 20q28 0 47 -20t19 -49q0 -28 -19 -48t-47 -20zM247 713q-30 0 -49 20t-19 48q0 29 19.5 49t48.5 20t48 -20t19 -49q0 -28 -19 -48t-48 -20z" />
    <glyph glyph-name="Eth" unicode="&#xd0;" horiz-adv-x="704" 
d="M3 403h71v264q42 7 95 11t111 4q96 0 161.5 -17t114.5 -54q53 -39 83 -103t30 -154q0 -99 -31 -166.5t-80 -109.5q-54 -45 -132.5 -66.5t-178.5 -21.5q-60 0 -102 3t-71 7v284h-71v119zM360 284h-134v-172q11 -2 25 -2h28q105 0 167 57.5t62 181.5q0 110 -56.5 162.5
t-156.5 52.5q-25 0 -41.5 -2t-27.5 -4v-155h134v-119z" />
    <glyph glyph-name="Ntilde" unicode="&#xd1;" horiz-adv-x="690" 
d="M66 0v674h178l140 -247q30 -54 58.5 -114t51.5 -117h3q-8 67 -10.5 136t-2.5 145v197h140v-674h-160l-144 260q-30 54 -61 116t-56 122l-3 -1q3 -67 4.5 -139t1.5 -155v-203h-140zM207 715q-2 63 19.5 95t58.5 32q20 0 34.5 -6t28.5 -14q13 -8 24 -13.5t20 -5.5
q13 0 19 9t8 34h69q2 -68 -19 -96.5t-60 -28.5q-20 0 -35.5 5.5t-29.5 13.5q-14 7 -23 12.5t-20 5.5q-19 0 -24 -43h-70z" />
    <glyph glyph-name="Ograve" unicode="&#xd2;" horiz-adv-x="717" 
d="M363 685q78 0 137.5 -27t100 -73.5t61.5 -108.5t21 -132q0 -83 -24 -149t-67.5 -111.5t-104.5 -70t-135 -24.5q-75 0 -134 26.5t-99.5 73t-62 109t-21.5 134.5q0 76 23.5 140.5t66 111.5t103 74t135.5 27zM359 564q-39 0 -69 -17.5t-51 -48t-32 -72.5t-11 -91
q0 -50 11.5 -91t32.5 -71t51.5 -46.5t68.5 -16.5q39 0 69 17.5t50.5 48t31.5 72.5t11 91q0 45 -10.5 86t-31.5 72t-51.5 49t-69.5 18zM348 834l84 -121h-121l-123 121h160z" />
    <glyph glyph-name="Oacute" unicode="&#xd3;" horiz-adv-x="717" 
d="M363 685q78 0 137.5 -27t100 -73.5t61.5 -108.5t21 -132q0 -83 -24 -149t-67.5 -111.5t-104.5 -70t-135 -24.5q-75 0 -134 26.5t-99.5 73t-62 109t-21.5 134.5q0 76 23.5 140.5t66 111.5t103 74t135.5 27zM359 564q-39 0 -69 -17.5t-51 -48t-32 -72.5t-11 -91
q0 -50 11.5 -91t32.5 -71t51.5 -46.5t68.5 -16.5q39 0 69 17.5t50.5 48t31.5 72.5t11 91q0 45 -10.5 86t-31.5 72t-51.5 49t-69.5 18zM533 834l-122 -123h-122l84 123h160z" />
    <glyph glyph-name="Ocircumflex" unicode="&#xd4;" horiz-adv-x="717" 
d="M363 685q78 0 137.5 -27t100 -73.5t61.5 -108.5t21 -132q0 -83 -24 -149t-67.5 -111.5t-104.5 -70t-135 -24.5q-75 0 -134 26.5t-99.5 73t-62 109t-21.5 134.5q0 76 23.5 140.5t66 111.5t103 74t135.5 27zM359 564q-39 0 -69 -17.5t-51 -48t-32 -72.5t-11 -91
q0 -50 11.5 -91t32.5 -71t51.5 -46.5t68.5 -16.5q39 0 69 17.5t50.5 48t31.5 72.5t11 91q0 45 -10.5 86t-31.5 72t-51.5 49t-69.5 18zM416 833l101 -122h-107l-50 62h-2l-50 -62h-107l101 122h114z" />
    <glyph glyph-name="Otilde" unicode="&#xd5;" horiz-adv-x="717" 
d="M363 685q78 0 137.5 -27t100 -73.5t61.5 -108.5t21 -132q0 -83 -24 -149t-67.5 -111.5t-104.5 -70t-135 -24.5q-75 0 -134 26.5t-99.5 73t-62 109t-21.5 134.5q0 76 23.5 140.5t66 111.5t103 74t135.5 27zM359 564q-39 0 -69 -17.5t-51 -48t-32 -72.5t-11 -91
q0 -50 11.5 -91t32.5 -71t51.5 -46.5t68.5 -16.5q39 0 69 17.5t50.5 48t31.5 72.5t11 91q0 45 -10.5 86t-31.5 72t-51.5 49t-69.5 18zM219 714q-2 64 19.5 96t57.5 32q20 0 35 -6t29 -14q12 -8 23 -13.5t21 -5.5q12 0 18 8.5t9 33.5h68q2 -67 -18.5 -95.5t-60.5 -28.5
q-20 0 -35.5 5.5t-29.5 12.5q-13 8 -22.5 13t-19.5 5q-21 0 -24 -43h-70z" />
    <glyph glyph-name="Odieresis" unicode="&#xd6;" horiz-adv-x="717" 
d="M363 685q78 0 137.5 -27t100 -73.5t61.5 -108.5t21 -132q0 -83 -24 -149t-67.5 -111.5t-104.5 -70t-135 -24.5q-75 0 -134 26.5t-99.5 73t-62 109t-21.5 134.5q0 76 23.5 140.5t66 111.5t103 74t135.5 27zM359 564q-39 0 -69 -17.5t-51 -48t-32 -72.5t-11 -91
q0 -50 11.5 -91t32.5 -71t51.5 -46.5t68.5 -16.5q39 0 69 17.5t50.5 48t31.5 72.5t11 91q0 45 -10.5 86t-31.5 72t-51.5 49t-69.5 18zM256 713q-29 0 -49 20t-20 48q0 29 20 49t49 20q28 0 47 -20t19 -49q0 -28 -18.5 -48t-47.5 -20zM463 713q-30 0 -49 20t-19 48
q0 29 19.5 49t48.5 20t48 -20t19 -49q0 -28 -19 -48t-48 -20z" />
    <glyph glyph-name="multiply" unicode="&#xd7;" horiz-adv-x="596" 
d="M105 526l193 -197l193 197l65 -67l-192 -196l192 -196l-66 -67l-192 196l-192 -196l-66 67l192 196l-192 196z" />
    <glyph glyph-name="Oslash" unicode="&#xd8;" horiz-adv-x="717" 
d="M72 -2l56 85q-45 48 -69 113t-24 140q0 74 23.5 138t66 111t102.5 73.5t133 26.5q84 0 149 -35l55 81l87 -58l-57 -84q45 -48 67 -112t22 -136q0 -83 -24.5 -148t-67.5 -110.5t-102.5 -69.5t-129.5 -24q-79 0 -144 34l-61 -89zM438 542q-35 24 -78 24q-41 0 -72.5 -17
t-54 -47.5t-34 -72.5t-11.5 -92q0 -35 6 -64t20 -59h1zM285 131q31 -23 74 -23q40 0 71.5 17t53.5 47.5t34 73t12 93.5q0 57 -22 114l-3 1z" />
    <glyph glyph-name="Ugrave" unicode="&#xd9;" horiz-adv-x="682" 
d="M218 674v-388q0 -88 31.5 -131.5t90.5 -43.5q60 0 92 42.5t32 132.5v388h152v-378q0 -156 -74.5 -231.5t-206.5 -75.5q-128 0 -199 74t-71 235v376h153zM334 833l84 -121h-122l-122 121h160z" />
    <glyph glyph-name="Uacute" unicode="&#xda;" horiz-adv-x="682" 
d="M218 674v-388q0 -88 31.5 -131.5t90.5 -43.5q60 0 92 42.5t32 132.5v388h152v-378q0 -156 -74.5 -231.5t-206.5 -75.5q-128 0 -199 74t-71 235v376h153zM508 833l-122 -123h-122l84 123h160z" />
    <glyph glyph-name="Ucircumflex" unicode="&#xdb;" horiz-adv-x="682" 
d="M218 674v-388q0 -88 31.5 -131.5t90.5 -43.5q60 0 92 42.5t32 132.5v388h152v-378q0 -156 -74.5 -231.5t-206.5 -75.5q-128 0 -199 74t-71 235v376h153zM408 833l101 -123h-107l-50 62h-2l-50 -62h-106l100 123h114z" />
    <glyph glyph-name="Udieresis" unicode="&#xdc;" horiz-adv-x="682" 
d="M218 674v-388q0 -88 31.5 -131.5t90.5 -43.5q60 0 92 42.5t32 132.5v388h152v-378q0 -156 -74.5 -231.5t-206.5 -75.5q-128 0 -199 74t-71 235v376h153zM244 713q-30 0 -49.5 20t-19.5 48q0 29 20 49t49 20q28 0 47 -20t19 -49q0 -28 -18.5 -48t-47.5 -20zM451 713
q-30 0 -49 20t-19 48q0 29 19.5 49t48.5 20t48 -20t19 -49q0 -28 -19 -48t-48 -20z" />
    <glyph glyph-name="Yacute" unicode="&#xdd;" horiz-adv-x="603" 
d="M222 0v276l-213 398h174l69 -162q16 -37 27.5 -66.5t24.5 -62.5h2q11 32 23.5 62.5t27.5 66.5l68 162h171l-222 -393v-281h-152zM479 832l-122 -124h-122l84 124h160z" />
    <glyph glyph-name="Thorn" unicode="&#xde;" horiz-adv-x="580" 
d="M66 674h151v-121q14 2 32 2.5t50 0.5q60 0 105.5 -12t79.5 -41q31 -26 48 -63.5t17 -82.5q0 -62 -21 -105.5t-57 -71t-84 -40t-102 -12.5q-24 0 -41 1t-27 3v-132h-151v674zM217 251q25 -5 62 -5q62 0 91 27.5t29 71.5q0 47 -30.5 71.5t-85.5 24.5q-25 0 -41.5 -1.5
t-24.5 -3.5v-185z" />
    <glyph glyph-name="germandbls" unicode="&#xdf;" horiz-adv-x="600" 
d="M61 0v431q0 86 20 139.5t57 87.5q66 63 180 63q45 0 84.5 -13t68.5 -37t45.5 -58.5t16.5 -76.5q0 -23 -6.5 -45.5t-17.5 -36.5q-29 -14 -43 -32.5t-14 -36.5t8 -33t26 -34q13 -14 27 -29.5t25.5 -34t19 -42t7.5 -51.5q0 -77 -52 -124.5t-149 -47.5q-28 0 -57.5 4
t-49.5 12l19 112q14 -6 31.5 -10t37.5 -4q32 0 49.5 15t17.5 37q0 18 -8.5 33t-27.5 35q-12 13 -26 27.5t-25 32t-18.5 38t-7.5 44.5q0 38 20.5 70.5t60.5 53.5q3 8 5 16.5t2 18.5q0 35 -21 58t-57 23q-21 0 -38.5 -8t-30.5 -27t-20 -50t-7 -76v-444h-152z" />
    <glyph glyph-name="agrave" unicode="&#xe0;" horiz-adv-x="528" 
d="M339 0l-9 49h-3q-24 -29 -60 -44.5t-80 -15.5q-37 0 -66.5 12.5t-49.5 33.5t-31 48t-11 56q0 48 20.5 83t58 58.5t90.5 34.5t118 11v7q0 10 -3.5 21t-13 20.5t-27 15.5t-45.5 6q-38 0 -74.5 -11t-60.5 -26l-28 98q26 14 74.5 28.5t115.5 14.5q61 0 102.5 -17t66.5 -45.5
t35.5 -67t10.5 -81.5v-170q0 -35 1.5 -67t5.5 -52h-137zM321 231q-30 0 -56 -3.5t-45 -12.5t-30 -24t-11 -37q0 -29 17 -43.5t43 -14.5q29 0 50 16.5t29 39.5q3 12 3 26v53zM241 702l86 -152h-104l-123 152h141z" />
    <glyph glyph-name="aacute" unicode="&#xe1;" horiz-adv-x="528" 
d="M339 0l-9 49h-3q-24 -29 -60 -44.5t-80 -15.5q-37 0 -66.5 12.5t-49.5 33.5t-31 48t-11 56q0 48 20.5 83t58 58.5t90.5 34.5t118 11v7q0 10 -3.5 21t-13 20.5t-27 15.5t-45.5 6q-38 0 -74.5 -11t-60.5 -26l-28 98q26 14 74.5 28.5t115.5 14.5q61 0 102.5 -17t66.5 -45.5
t35.5 -67t10.5 -81.5v-170q0 -35 1.5 -67t5.5 -52h-137zM321 231q-30 0 -56 -3.5t-45 -12.5t-30 -24t-11 -37q0 -29 17 -43.5t43 -14.5q29 0 50 16.5t29 39.5q3 12 3 26v53zM422 702l-122 -152h-105l86 152h141z" />
    <glyph glyph-name="acircumflex" unicode="&#xe2;" horiz-adv-x="528" 
d="M339 0l-9 49h-3q-24 -29 -60 -44.5t-80 -15.5q-37 0 -66.5 12.5t-49.5 33.5t-31 48t-11 56q0 48 20.5 83t58 58.5t90.5 34.5t118 11v7q0 10 -3.5 21t-13 20.5t-27 15.5t-45.5 6q-38 0 -74.5 -11t-60.5 -26l-28 98q26 14 74.5 28.5t115.5 14.5q61 0 102.5 -17t66.5 -45.5
t35.5 -67t10.5 -81.5v-170q0 -35 1.5 -67t5.5 -52h-137zM321 231q-30 0 -56 -3.5t-45 -12.5t-30 -24t-11 -37q0 -29 17 -43.5t43 -14.5q29 0 50 16.5t29 39.5q3 12 3 26v53zM312 702l99 -152h-99l-50 87h-2l-51 -87h-99l100 152h102z" />
    <glyph glyph-name="atilde" unicode="&#xe3;" horiz-adv-x="528" 
d="M339 0l-9 49h-3q-24 -29 -60 -44.5t-80 -15.5q-37 0 -66.5 12.5t-49.5 33.5t-31 48t-11 56q0 48 20.5 83t58 58.5t90.5 34.5t118 11v7q0 10 -3.5 21t-13 20.5t-27 15.5t-45.5 6q-38 0 -74.5 -11t-60.5 -26l-28 98q26 14 74.5 28.5t115.5 14.5q61 0 102.5 -17t66.5 -45.5
t35.5 -67t10.5 -81.5v-170q0 -35 1.5 -67t5.5 -52h-137zM321 231q-30 0 -56 -3.5t-45 -12.5t-30 -24t-11 -37q0 -29 17 -43.5t43 -14.5q29 0 50 16.5t29 39.5q3 12 3 26v53zM113 558q-2 63 21 97t61 34q19 0 34.5 -6t30.5 -14q12 -8 22.5 -14t19.5 -6q13 0 18.5 9t7.5 36h70
q2 -69 -20 -99t-62 -30q-21 0 -37 7t-32 15l-21 12q-7 4 -17 4q-23 0 -24 -45h-72z" />
    <glyph glyph-name="adieresis" unicode="&#xe4;" horiz-adv-x="528" 
d="M339 0l-9 49h-3q-24 -29 -60 -44.5t-80 -15.5q-37 0 -66.5 12.5t-49.5 33.5t-31 48t-11 56q0 48 20.5 83t58 58.5t90.5 34.5t118 11v7q0 10 -3.5 21t-13 20.5t-27 15.5t-45.5 6q-38 0 -74.5 -11t-60.5 -26l-28 98q26 14 74.5 28.5t115.5 14.5q61 0 102.5 -17t66.5 -45.5
t35.5 -67t10.5 -81.5v-170q0 -35 1.5 -67t5.5 -52h-137zM321 231q-30 0 -56 -3.5t-45 -12.5t-30 -24t-11 -37q0 -29 17 -43.5t43 -14.5q29 0 50 16.5t29 39.5q3 12 3 26v53zM160 557q-31 0 -51.5 20.5t-20.5 49.5q0 31 21 51t51 20q29 0 48.5 -20t19.5 -51
q0 -29 -19.5 -49.5t-48.5 -20.5zM370 557q-31 0 -51 20.5t-20 49.5q0 31 20.5 51t50.5 20q29 0 49 -20t20 -51q0 -29 -19.5 -49.5t-49.5 -20.5z" />
    <glyph glyph-name="aring" unicode="&#xe5;" horiz-adv-x="528" 
d="M339 0l-9 49h-3q-24 -29 -60 -44.5t-80 -15.5q-37 0 -66.5 12.5t-49.5 33.5t-31 48t-11 56q0 48 20.5 83t58 58.5t90.5 34.5t118 11v7q0 10 -3.5 21t-13 20.5t-27 15.5t-45.5 6q-38 0 -74.5 -11t-60.5 -26l-28 98q26 14 74.5 28.5t115.5 14.5q61 0 102.5 -17t66.5 -45.5
t35.5 -67t10.5 -81.5v-170q0 -35 1.5 -67t5.5 -52h-137zM321 231q-30 0 -56 -3.5t-45 -12.5t-30 -24t-11 -37q0 -29 17 -43.5t43 -14.5q29 0 50 16.5t29 39.5q3 12 3 26v53zM266 539q-54 0 -85 27.5t-31 68.5q0 42 30 71.5t87 29.5q55 0 83.5 -28.5t28.5 -71.5
q0 -42 -30.5 -69.5t-82.5 -27.5zM265 589q23 0 34.5 14t11.5 34q0 19 -12 34t-35 15q-22 0 -33 -15.5t-11 -34.5q0 -17 12 -32t33 -15z" />
    <glyph glyph-name="ae" unicode="&#xe6;" horiz-adv-x="803" 
d="M460 203q2 -47 38 -74t94 -27q46 0 77 7t60 19l21 -102q-41 -21 -87.5 -29t-92.5 -8q-61 0 -111 22.5t-75 64.5h-4q-29 -39 -73.5 -63t-108.5 -24q-40 0 -71.5 12t-53 33t-33 49t-11.5 59q0 45 21 79t59 56.5t91 33.5t118 11v14q0 5 -3.5 15t-14 19.5t-28.5 17t-47 7.5
q-38 0 -73 -11.5t-58 -25.5l-30 96q27 15 72.5 30.5t100.5 15.5q60 0 99.5 -20.5t61.5 -58.5h3q29 38 71 58.5t96 20.5t93 -21t64 -55.5t36.5 -78t11.5 -88.5q0 -14 -1 -29.5t-2 -24.5h-310zM322 229q-30 0 -56.5 -4t-46 -13t-30.5 -23.5t-11 -35.5q0 -29 18.5 -43t44.5 -14
q29 0 48.5 15.5t28.5 35.5q3 6 3.5 14t0.5 17v51zM633 305q0 12 -3 28.5t-12 31.5t-25.5 25.5t-42.5 10.5q-24 0 -41 -10t-28 -24.5t-16.5 -31.5t-5.5 -30h174z" />
    <glyph glyph-name="ccedilla" unicode="&#xe7;" horiz-adv-x="451" 
d="M428 12q-17 -8 -46 -14t-66 -8l-19 -34q29 -7 51 -26.5t22 -54.5q0 -26 -10.5 -44t-27.5 -29t-38.5 -15.5t-43.5 -4.5t-45 4t-40 15l20 62q11 -7 26.5 -10.5t29.5 -3.5q15 0 25.5 5.5t10.5 19.5q0 15 -18.5 23.5t-60.5 13.5l40 84q-96 14 -150.5 78.5t-54.5 166.5
q0 54 18 101t53.5 82.5t88 56t120.5 20.5q30 0 61 -5t55 -14l-24 -113q-14 6 -34.5 10.5t-50.5 4.5t-54.5 -10t-41.5 -28.5t-26 -43.5t-9 -55q0 -34 10.5 -59.5t28.5 -43t42.5 -26t52.5 -8.5q27 0 48.5 4t38.5 12z" />
    <glyph glyph-name="egrave" unicode="&#xe8;" horiz-adv-x="528" 
d="M178 196q2 -24 13.5 -41.5t30.5 -29t43 -17t51 -5.5q39 0 71.5 5t63.5 15l20 -103q-38 -15 -82.5 -22.5t-94.5 -7.5q-125 0 -193 67t-68 182q0 46 14.5 93t45 84t77 60.5t110.5 23.5q59 0 100.5 -21t67.5 -55.5t38 -78.5t12 -89q0 -20 -1.5 -36t-3.5 -24h-315zM357 300
q0 14 -3.5 31t-13 32t-26.5 25.5t-43 10.5q-24 0 -41 -9.5t-28.5 -24.5t-17.5 -32.5t-7 -32.5h180zM260 702l86 -152h-104l-122 152h140z" />
    <glyph glyph-name="eacute" unicode="&#xe9;" horiz-adv-x="528" 
d="M178 196q2 -24 13.5 -41.5t30.5 -29t43 -17t51 -5.5q39 0 71.5 5t63.5 15l20 -103q-38 -15 -82.5 -22.5t-94.5 -7.5q-125 0 -193 67t-68 182q0 46 14.5 93t45 84t77 60.5t110.5 23.5q59 0 100.5 -21t67.5 -55.5t38 -78.5t12 -89q0 -20 -1.5 -36t-3.5 -24h-315zM357 300
q0 14 -3.5 31t-13 32t-26.5 25.5t-43 10.5q-24 0 -41 -9.5t-28.5 -24.5t-17.5 -32.5t-7 -32.5h180zM441 702l-122 -152h-105l86 152h141z" />
    <glyph glyph-name="ecircumflex" unicode="&#xea;" horiz-adv-x="528" 
d="M178 196q2 -24 13.5 -41.5t30.5 -29t43 -17t51 -5.5q39 0 71.5 5t63.5 15l20 -103q-38 -15 -82.5 -22.5t-94.5 -7.5q-125 0 -193 67t-68 182q0 46 14.5 93t45 84t77 60.5t110.5 23.5q59 0 100.5 -21t67.5 -55.5t38 -78.5t12 -89q0 -20 -1.5 -36t-3.5 -24h-315zM357 300
q0 14 -3.5 31t-13 32t-26.5 25.5t-43 10.5q-24 0 -41 -9.5t-28.5 -24.5t-17.5 -32.5t-7 -32.5h180zM326 702l99 -152h-99l-50 87h-2l-50 -87h-100l100 152h102z" />
    <glyph glyph-name="edieresis" unicode="&#xeb;" horiz-adv-x="528" 
d="M178 196q2 -24 13.5 -41.5t30.5 -29t43 -17t51 -5.5q39 0 71.5 5t63.5 15l20 -103q-38 -15 -82.5 -22.5t-94.5 -7.5q-125 0 -193 67t-68 182q0 46 14.5 93t45 84t77 60.5t110.5 23.5q59 0 100.5 -21t67.5 -55.5t38 -78.5t12 -89q0 -20 -1.5 -36t-3.5 -24h-315zM357 300
q0 14 -3.5 31t-13 32t-26.5 25.5t-43 10.5q-24 0 -41 -9.5t-28.5 -24.5t-17.5 -32.5t-7 -32.5h180zM176 557q-31 0 -51.5 20.5t-20.5 49.5q0 31 21 51t51 20q29 0 48.5 -20t19.5 -51q0 -29 -19.5 -49.5t-48.5 -20.5zM386 557q-31 0 -51 20.5t-20 49.5q0 31 20.5 51t50.5 20
q29 0 49 -20t20 -51q0 -29 -19.5 -49.5t-49.5 -20.5z" />
    <glyph glyph-name="igrave" unicode="&#xec;" horiz-adv-x="274" 
d="M61 0v489h152v-489h-152zM110 702l86 -152h-104l-122 152h140z" />
    <glyph glyph-name="iacute" unicode="&#xed;" horiz-adv-x="274" 
d="M61 0v489h152v-489h-152zM299 702l-122 -152h-105l86 152h141z" />
    <glyph glyph-name="icircumflex" unicode="&#xee;" horiz-adv-x="274" 
d="M61 0v489h152v-489h-152zM188 702l100 -152h-99l-51 87h-2l-50 -87h-99l99 152h102z" />
    <glyph glyph-name="idieresis" unicode="&#xef;" horiz-adv-x="274" 
d="M61 0v489h152v-489h-152zM33 557q-31 0 -51.5 20.5t-20.5 49.5q0 31 21 51t51 20q29 0 48.5 -20t19.5 -51q0 -29 -19.5 -49.5t-48.5 -20.5zM243 557q-31 0 -51 20.5t-20 49.5q0 31 20.5 51t50.5 20q29 0 49 -20t20 -51q0 -29 -19.5 -49.5t-49.5 -20.5z" />
    <glyph glyph-name="eth" unicode="&#xf0;" horiz-adv-x="574" 
d="M287 98q48 0 72.5 40t24.5 104q0 76 -24 106q-12 15 -29.5 24t-41.5 9q-28 0 -47 -14t-30.5 -35t-16.5 -46t-5 -48q0 -29 6.5 -54t18.5 -44.5t30 -30.5t42 -11zM80 538l105 47q-22 14 -45.5 25.5t-48.5 22.5l66 85q81 -29 158 -80l138 60l30 -59l-106 -45
q80 -63 123 -151q21 -41 31 -87.5t10 -98.5q0 -69 -21.5 -119.5t-57.5 -83.5t-82 -49t-94 -16q-54 0 -100 17t-80 49.5t-53.5 78.5t-19.5 103q0 55 19 99t51.5 74.5t75.5 47t91 16.5q17 0 33 -4.5t33 -15.5l2 2q-18 24 -39.5 45.5t-47.5 38.5l-144 -62z" />
    <glyph glyph-name="ntilde" unicode="&#xf1;" horiz-adv-x="586" 
d="M61 333q0 46 -1 85t-3 71h132l7 -67h3q7 12 20.5 25.5t32 25t43.5 19.5t55 8q37 0 69.5 -12.5t55.5 -38.5t36.5 -65.5t13.5 -93.5v-290h-152v271q0 48 -17.5 77t-59.5 29q-32 0 -50.5 -18t-26.5 -39q-3 -7 -4.5 -17t-1.5 -21v-282h-152v333zM152 558q-2 63 20.5 97
t61.5 34q19 0 34.5 -6t30.5 -14q12 -8 22.5 -14t19.5 -6q12 0 18 9t8 36h70q2 -69 -20 -99t-62 -30q-21 0 -37 7t-32 15q-14 8 -21.5 12t-16.5 4q-23 0 -24 -45h-72z" />
    <glyph glyph-name="ograve" unicode="&#xf2;" horiz-adv-x="577" 
d="M294 500q56 0 102 -18.5t79 -51.5t51 -79t18 -101q0 -67 -22 -116t-58 -81.5t-82.5 -48t-95.5 -15.5q-54 0 -100 17t-80 49.5t-53.5 79.5t-19.5 106t18.5 107t53 81.5t82.5 52t107 18.5zM290 392q-27 0 -46 -13t-31 -33.5t-17.5 -47t-5.5 -53.5q0 -63 25.5 -105t74.5 -42
q45 0 71 40.5t26 106.5q0 27 -5.5 53.5t-17 47.5t-30 33.5t-44.5 12.5zM273 702l86 -152h-104l-122 152h140z" />
    <glyph glyph-name="oacute" unicode="&#xf3;" horiz-adv-x="577" 
d="M294 500q56 0 102 -18.5t79 -51.5t51 -79t18 -101q0 -67 -22 -116t-58 -81.5t-82.5 -48t-95.5 -15.5q-54 0 -100 17t-80 49.5t-53.5 79.5t-19.5 106t18.5 107t53 81.5t82.5 52t107 18.5zM290 392q-27 0 -46 -13t-31 -33.5t-17.5 -47t-5.5 -53.5q0 -63 25.5 -105t74.5 -42
q45 0 71 40.5t26 106.5q0 27 -5.5 53.5t-17 47.5t-30 33.5t-44.5 12.5zM448 702l-122 -152h-105l86 152h141z" />
    <glyph glyph-name="ocircumflex" unicode="&#xf4;" horiz-adv-x="577" 
d="M294 500q56 0 102 -18.5t79 -51.5t51 -79t18 -101q0 -67 -22 -116t-58 -81.5t-82.5 -48t-95.5 -15.5q-54 0 -100 17t-80 49.5t-53.5 79.5t-19.5 106t18.5 107t53 81.5t82.5 52t107 18.5zM290 392q-27 0 -46 -13t-31 -33.5t-17.5 -47t-5.5 -53.5q0 -63 25.5 -105t74.5 -42
q45 0 71 40.5t26 106.5q0 27 -5.5 53.5t-17 47.5t-30 33.5t-44.5 12.5zM340 702l99 -152h-99l-50 87h-2l-50 -87h-100l100 152h102z" />
    <glyph glyph-name="otilde" unicode="&#xf5;" horiz-adv-x="577" 
d="M294 500q56 0 102 -18.5t79 -51.5t51 -79t18 -101q0 -67 -22 -116t-58 -81.5t-82.5 -48t-95.5 -15.5q-54 0 -100 17t-80 49.5t-53.5 79.5t-19.5 106t18.5 107t53 81.5t82.5 52t107 18.5zM290 392q-27 0 -46 -13t-31 -33.5t-17.5 -47t-5.5 -53.5q0 -63 25.5 -105t74.5 -42
q45 0 71 40.5t26 106.5q0 27 -5.5 53.5t-17 47.5t-30 33.5t-44.5 12.5zM146 558q-2 63 20.5 97t61.5 34q19 0 34.5 -6t30.5 -14q12 -8 22.5 -14t19.5 -6q12 0 18 9t8 36h70q2 -69 -20 -99t-62 -30q-21 0 -37 7t-32 15q-14 8 -21.5 12t-16.5 4q-23 0 -24 -45h-72z" />
    <glyph glyph-name="odieresis" unicode="&#xf6;" horiz-adv-x="577" 
d="M294 500q56 0 102 -18.5t79 -51.5t51 -79t18 -101q0 -67 -22 -116t-58 -81.5t-82.5 -48t-95.5 -15.5q-54 0 -100 17t-80 49.5t-53.5 79.5t-19.5 106t18.5 107t53 81.5t82.5 52t107 18.5zM290 392q-27 0 -46 -13t-31 -33.5t-17.5 -47t-5.5 -53.5q0 -63 25.5 -105t74.5 -42
q45 0 71 40.5t26 106.5q0 27 -5.5 53.5t-17 47.5t-30 33.5t-44.5 12.5zM184 557q-31 0 -51.5 20.5t-20.5 49.5q0 31 21 51t51 20q29 0 48.5 -20t19.5 -51q0 -29 -19.5 -49.5t-48.5 -20.5zM394 557q-31 0 -51 20.5t-20 49.5q0 31 20.5 51t50.5 20q29 0 49 -20t20 -51
q0 -29 -19.5 -49.5t-49.5 -20.5z" />
    <glyph glyph-name="divide" unicode="&#xf7;" horiz-adv-x="596" 
d="M298 369q-33 0 -53 20.5t-20 52.5q0 35 20.5 55t52.5 20q33 0 52.5 -20t20.5 -55q0 -32 -19.5 -52.5t-53.5 -20.5zM40 220v94h516v-94h-516zM298 17q-33 0 -53 20.5t-20 53.5q0 34 20.5 54t52.5 20q33 0 52.5 -20t20.5 -54q0 -33 -19.5 -53.5t-53.5 -20.5z" />
    <glyph glyph-name="oslash" unicode="&#xf8;" horiz-adv-x="577" 
d="M288 500q33 0 63 -6t56 -20l47 69l53 -37l-45 -67q39 -34 60.5 -82.5t21.5 -110.5q0 -65 -22 -113.5t-58 -80.5t-81.5 -47.5t-93.5 -15.5q-32 0 -61 6t-55 20l-49 -71l-50 40l44 65q-40 32 -62.5 81t-22.5 114q0 58 18.5 105t52.5 80.5t80.5 52t103.5 18.5zM342 374
q-11 8 -24 13t-30 5q-30 0 -50.5 -13.5t-33.5 -34.5t-19 -47.5t-6 -51.5q0 -20 4 -40.5t14 -37.5l2 -1zM237 116q11 -10 24 -14t27 -4q51 0 80 39.5t29 104.5q0 18 -3.5 38.5t-11.5 37.5l-3 1z" />
    <glyph glyph-name="ugrave" unicode="&#xf9;" horiz-adv-x="583" 
d="M522 157q0 -48 1 -87t3 -70h-132l-7 69h-3q-7 -11 -19.5 -25t-31 -26t-44 -20.5t-58.5 -8.5q-37 0 -68.5 12t-54.5 38t-36 66t-13 97v287h153v-263q0 -54 18 -84t58 -30q32 0 50 17.5t26 35.5q3 7 4 15.5t1 17.5v291h153v-332zM272 702l86 -152h-104l-122 152h140z" />
    <glyph glyph-name="uacute" unicode="&#xfa;" horiz-adv-x="583" 
d="M522 157q0 -48 1 -87t3 -70h-132l-7 69h-3q-7 -11 -19.5 -25t-31 -26t-44 -20.5t-58.5 -8.5q-37 0 -68.5 12t-54.5 38t-36 66t-13 97v287h153v-263q0 -54 18 -84t58 -30q32 0 50 17.5t26 35.5q3 7 4 15.5t1 17.5v291h153v-332zM456 702l-122 -152h-105l86 152h141z" />
    <glyph glyph-name="ucircumflex" unicode="&#xfb;" horiz-adv-x="583" 
d="M522 157q0 -48 1 -87t3 -70h-132l-7 69h-3q-7 -11 -19.5 -25t-31 -26t-44 -20.5t-58.5 -8.5q-37 0 -68.5 12t-54.5 38t-36 66t-13 97v287h153v-263q0 -54 18 -84t58 -30q32 0 50 17.5t26 35.5q3 7 4 15.5t1 17.5v291h153v-332zM343 702l99 -152h-99l-50 87h-2l-50 -87
h-99l99 152h102z" />
    <glyph glyph-name="udieresis" unicode="&#xfc;" horiz-adv-x="583" 
d="M522 157q0 -48 1 -87t3 -70h-132l-7 69h-3q-7 -11 -19.5 -25t-31 -26t-44 -20.5t-58.5 -8.5q-37 0 -68.5 12t-54.5 38t-36 66t-13 97v287h153v-263q0 -54 18 -84t58 -30q32 0 50 17.5t26 35.5q3 7 4 15.5t1 17.5v291h153v-332zM191 557q-31 0 -51.5 20.5t-20.5 49.5
q0 31 21 51t51 20q29 0 48.5 -20t19.5 -51q0 -29 -19.5 -49.5t-48.5 -20.5zM401 557q-31 0 -51 20.5t-20 49.5q0 31 20.5 51t50.5 20q29 0 49 -20t20 -51q0 -29 -19.5 -49.5t-49.5 -20.5z" />
    <glyph glyph-name="yacute" unicode="&#xfd;" horiz-adv-x="523" 
d="M175 489l73 -240q6 -22 12.5 -46.5t11.5 -44.5h3q5 20 11 45t11 46l60 240h163l-114 -322q-26 -73 -48.5 -125t-43 -89.5t-40 -63t-40.5 -43.5q-40 -35 -79 -49t-68 -18l-32 129q31 5 66 26q17 9 34.5 25.5t28.5 35.5q8 11 8 22q0 4 -1 10t-6 15l-179 447h169zM437 702
l-122 -152h-105l86 152h141z" />
    <glyph glyph-name="thorn" unicode="&#xfe;" horiz-adv-x="598" 
d="M213 710v-281h2q22 32 58.5 51.5t87.5 19.5q39 1 76 -15t65 -48.5t45 -79.5t17 -108q0 -68 -20 -117t-52 -81t-71 -47t-77 -15q-45 0 -77.5 16t-51.5 41h-2v-244h-152v908h152zM213 200q0 -11 3.5 -24.5t10.5 -22.5q11 -21 32 -34t47 -13q48 0 76 37.5t28 103.5
q0 57 -26 95.5t-74 38.5q-29 0 -52 -14.5t-35 -41.5q-4 -8 -7 -19.5t-3 -21.5v-84z" />
    <glyph glyph-name="ydieresis" unicode="&#xff;" horiz-adv-x="523" 
d="M175 489l73 -240q6 -22 12.5 -46.5t11.5 -44.5h3q5 20 11 45t11 46l60 240h163l-114 -322q-26 -73 -48.5 -125t-43 -89.5t-40 -63t-40.5 -43.5q-40 -35 -79 -49t-68 -18l-32 129q31 5 66 26q17 9 34.5 25.5t28.5 35.5q8 11 8 22q0 4 -1 10t-6 15l-179 447h169zM169 557
q-31 0 -51.5 20.5t-20.5 49.5q0 31 20.5 51t51.5 20q29 0 48.5 -20t19.5 -51q0 -29 -19.5 -49.5t-48.5 -20.5zM379 557q-31 0 -51 20.5t-20 49.5q0 31 20 51t51 20q29 0 49 -20t20 -51q0 -29 -19.5 -49.5t-49.5 -20.5z" />
    <glyph glyph-name="OE" unicode="&#x152;" horiz-adv-x="936" 
d="M897 0h-380q-14 0 -29.5 -2t-32.5 -4t-37.5 -3.5t-44.5 -1.5q-87 0 -150.5 28t-105 75t-62 109t-20.5 130q0 81 24.5 146.5t69.5 111.5t107.5 71t138.5 25q28 0 50 -1.5t41 -3.5t34.5 -4t28.5 -2h354v-125h-263v-140h248v-124h-248v-160h277v-125zM468 550q-30 14 -79 14
q-39 0 -74.5 -14.5t-61.5 -43.5t-41.5 -71.5t-15.5 -97.5q0 -50 13 -91.5t39 -71.5t64 -47t87 -17q18 0 36.5 3t32.5 9v428z" />
    <glyph glyph-name="oe" unicode="&#x153;" horiz-adv-x="868" 
d="M526 199q1 -23 12 -40.5t29 -30.5t41.5 -19.5t50.5 -6.5q45 0 75.5 7.5t60.5 18.5l21 -102q-20 -11 -44 -18.5t-48 -11.5t-46 -5.5t-40 -1.5q-54 0 -100.5 19t-79.5 67h-3q-31 -45 -79.5 -65.5t-103.5 -20.5q-50 0 -93.5 17.5t-75.5 50t-51 80t-19 107.5q0 58 18.5 105
t51.5 80.5t79 52t100 18.5q53 0 99.5 -21.5t72.5 -65.5h2q29 44 73.5 65.5t96.5 21.5q58 0 99 -21.5t66 -56t36.5 -78t11.5 -88.5q0 -17 -1 -33.5t-3 -23.5h-309zM290 392q-29 0 -48 -13.5t-30.5 -34.5t-16.5 -47.5t-5 -52.5q0 -31 6.5 -57.5t18.5 -46t30.5 -31t42.5 -11.5
q47 0 71.5 40t24.5 107q0 29 -5.5 55.5t-17 47t-29.5 32.5t-42 12zM698 301q0 13 -2.5 30t-11.5 32t-26 25.5t-45 10.5q-23 0 -40 -10t-27.5 -24.5t-16 -31.5t-5.5 -32h174z" />
    <glyph glyph-name="Ydieresis" unicode="&#x178;" horiz-adv-x="603" 
d="M222 0v276l-213 398h174l69 -162q16 -37 27.5 -66.5t24.5 -62.5h2q11 32 23.5 62.5t27.5 66.5l68 162h171l-222 -393v-281h-152zM207 711q-29 0 -49 20t-20 48q0 29 20.5 49t49.5 20q28 0 46.5 -20t18.5 -49q0 -28 -18.5 -48t-47.5 -20zM415 711q-30 0 -49.5 20t-19.5 48
q0 29 19.5 49t49.5 20q29 0 48 -20t19 -49q0 -28 -19 -48t-48 -20z" />
    <glyph glyph-name="tilde" unicode="&#x2dc;" horiz-adv-x="300" 
d="M8 558q-2 63 20.5 97t61.5 34q19 0 34.5 -6t30.5 -14q12 -8 22.5 -14t19.5 -6q12 0 18 9t8 36h70q2 -69 -20 -99t-62 -30q-21 0 -37 7t-32 15q-14 8 -21.5 12t-16.5 4q-23 0 -24 -45h-72z" />
    <glyph glyph-name="endash" unicode="&#x2013;" horiz-adv-x="500" 
d="M470 301v-94h-440v94h440z" />
    <glyph glyph-name="emdash" unicode="&#x2014;" horiz-adv-x="1000" 
d="M970 301v-94h-940v94h940z" />
    <glyph glyph-name="quoteleft" unicode="&#x2018;" horiz-adv-x="260" 
d="M27 406q23 74 54 144t66 127l92 8q-23 -64 -41 -134t-29 -136z" />
    <glyph glyph-name="quoteright" unicode="&#x2019;" horiz-adv-x="260" 
d="M238 685q-23 -74 -54.5 -144t-65.5 -127l-92 -8q23 64 41 134t28 136z" />
    <glyph glyph-name="quotedblleft" unicode="&#x201c;" horiz-adv-x="454" 
d="M26 406q23 74 54 144t66 127l92 8q-23 -64 -41 -134t-29 -136zM221 406q23 74 54 144t66 127l92 8q-23 -64 -41 -134t-29 -136z" />
    <glyph glyph-name="quotedblright" unicode="&#x201d;" horiz-adv-x="454" 
d="M237 685q-23 -74 -54.5 -144t-65.5 -127l-92 -8q23 64 41 134t29 136zM432 685q-23 -74 -54 -144t-66 -127l-92 -8q23 64 41 134t29 136z" />
    <glyph glyph-name="quotedblbase" unicode="&#x201e;" horiz-adv-x="459" 
d="M15 -104q23 64 41 133.5t29 135.5l142 10q-23 -74 -54 -144t-66 -127zM211 -104q23 64 41 133.5t29 135.5l142 10q-23 -74 -54.5 -144t-65.5 -127z" />
    <glyph glyph-name="bullet" unicode="&#x2022;" horiz-adv-x="338" 
d="M169 130q-27 0 -50.5 10t-41.5 27.5t-28 41.5t-10 52q-1 27 9 51t28 42t42 28t51 10t50.5 -10t41.5 -27.5t28 -41.5t10 -52t-10 -52t-27.5 -41.5t-41.5 -27.5t-51 -10z" />
    <glyph glyph-name="ellipsis" unicode="&#x2026;" horiz-adv-x="1000" 
d="M166 -11q-40 0 -64.5 26t-24.5 66q0 41 25 67t65 26q39 0 64 -25.5t25 -67.5q0 -40 -24.5 -66t-65.5 -26zM500 -11q-40 0 -65 26t-25 66q0 41 25.5 67t64.5 26q40 0 64.5 -25.5t25.5 -67.5q0 -40 -24.5 -66t-65.5 -26zM834 -11q-40 0 -65 26t-25 66q0 41 25.5 67t64.5 26
q40 0 64.5 -25.5t25.5 -67.5q0 -40 -24.5 -66t-65.5 -26z" />
    <glyph glyph-name="guilsinglleft" unicode="&#x2039;" horiz-adv-x="270" 
d="M129 252l119 -191h-106l-116 191l116 191h106z" />
    <glyph glyph-name="guilsinglright" unicode="&#x203a;" horiz-adv-x="270" 
d="M22 443h105l117 -191l-117 -191h-105l120 191z" />
    <glyph glyph-name="Euro" unicode="&#x20ac;" 
d="M526 27q-26 -14 -67 -26t-89 -12q-74 0 -138 29t-106 85q-20 26 -34.5 58t-21.5 72h-65v71h55v17q0 8 0.5 15t0.5 15h-56v71h67q10 41 27.5 75t41.5 62q43 48 101.5 75t129.5 27q46 0 84.5 -9t65.5 -21l-28 -114q-20 8 -49 16t-62 8q-36 0 -68 -12.5t-55 -41.5
q-21 -24 -32 -65h249v-71h-264q-1 -8 -1 -16v-15v-16h265v-71h-251q10 -44 33 -70q24 -27 57.5 -39t71.5 -12q35 0 66.5 9t47.5 17z" />
    <glyph glyph-name="trademark" unicode="&#x2122;" horiz-adv-x="650" 
d="M265 674v-67h-78v-206h-83v206h-77v67h238zM559 401l-5 120q-1 23 -0.5 48.5t-0.5 57.5h-5q-6 -28 -12 -55.5t-11 -50.5l-28 -115h-79l-25 116q-3 20 -7.5 49t-9.5 56h-5q0 -28 -0.5 -55.5t-1.5 -50.5l-6 -120h-78l17 273h128l18 -67q4 -16 7.5 -35t8.5 -53h1q5 26 10 47
t10 41l20 67h119l15 -273h-80z" />
    <glyph glyph-name="uni20B9.taboldstyle" horiz-adv-x="561" 
d="M368 472q23 -26 31 -70h102v-66h-103q-12 -60 -57.5 -92t-103.5 -38q43 -41 93.5 -95t99.5 -111h-163q-17 18 -38 41.5t-45 49t-49 52t-50 50.5v99h56q48 0 74 12t36 32h-166v66h162q-11 15 -34 24.5t-61 9.5h-67v103h416v-67h-133z" />
    </font>
</defs>
</svg>
